<?xml version="1.0" standalone="no"?>
<!DOCTYPE svg PUBLIC "-//W3C//DTD SVG 1.1//EN" "http://www.w3.org/Graphics/SVG/1.1/DTD/svg11.dtd" >
<svg xmlns="http://www.w3.org/2000/svg" xmlns:xlink="http://www.w3.org/1999/xlink" version="1.1">

<defs>
<font id="PUTHIAfontRegular" horiz-adv-x="962" >
  <font-face 
    font-family="PUTHIAfont"
    font-weight="5"
    font-stretch="normal"
    units-per-em="1750"
    panose-1="0 0 0 0 0 0 0 0 0 0"
    ascent="1556"
    descent="-194"
    x-height="681"
    cap-height="1269"
    bbox="-73 -149 1459 1556"
    underline-thickness="17"
    underline-position="-122"
    unicode-range="U+0020-00D7"
  />
<missing-glyph horiz-adv-x="1556" 
d="M97 0v1556h1362v-1556h-1362zM1362 97v1362h-1168v-1362h1168z" />
    <glyph glyph-name=".notdef" horiz-adv-x="1556" 
d="M97 0v1556h1362v-1556h-1362zM1362 97v1362h-1168v-1362h1168z" />
    <glyph glyph-name=".null" unicode="&#xd7;" horiz-adv-x="0" 
 />
    <glyph glyph-name=".null" unicode="&#x141;" horiz-adv-x="0" 
 />
    <glyph glyph-name=".null" unicode="&#xfd;" horiz-adv-x="0" 
 />
    <glyph glyph-name="nonmarkingreturn" 
 />
    <glyph glyph-name="space" unicode=" " 
 />
    <glyph glyph-name="exclam" unicode="!" 
d="M224 1304l18 15q8 6 15.5 8.5t19.5 2.5h489q16 -3 37 -13q23 -8 23 -22q0 -8 -45 -59l-74 -81h-346zM749 62q-2 -3 -9 -10t-15.5 -14.5t-21.5 -9.5h-518q-19 0 -39 12l-26 18l129 133h377zM756 702q0 -8 -34 -39l-55 -49h-392l-56 49q-34 32 -34 39q5 6 12.5 13t26.5 22
l65 51h390l46 -45q31 -31 31 -41zM162 1219q12 35 23 47l14 15l127 -137l-37 -327l-73 -57q-43 -33 -48 -34q-10 3 -22.5 22.5t-18 30.5t-8.5 16zM861 768l-39 -32q-23 -18 -32 -20q-13 3 -46 36l-51 55l44 334q14 18 27 33.5t47.5 54t46.5 40.5q10 -1 27 -27q8 -10 15 -22
t10 -18z" />
    <glyph glyph-name="quotedbl" unicode="&#x22;" 
d="M162 1219q12 35 23 47l14 15l127 -137l-37 -327l-73 -57q-43 -33 -48 -34q-10 3 -22.5 22.5t-18 30.5t-8.5 16zM861 768l-39 -32q-23 -18 -32 -20q-13 3 -46 36l-51 55l44 334q14 18 27 33.5t47.5 54t46.5 40.5q10 -1 27 -27q8 -10 15 -22t10 -18z" />
    <glyph glyph-name="quotesingle" unicode="'" 
d="M162 1219q12 35 23 47l14 15l127 -137l-37 -327l-73 -57q-43 -33 -48 -34q-10 3 -22.5 22.5t-18 30.5t-8.5 16z" />
    <glyph glyph-name="parenleft" unicode="(" 
d="M224 1304l18 15q8 6 15.5 8.5t19.5 2.5h489q16 -3 37 -13q23 -8 23 -22q0 -8 -45 -59l-74 -81h-346zM749 62q-2 -3 -9 -10t-15.5 -14.5t-21.5 -9.5h-518q-19 0 -39 12l-26 18l129 133h377zM107 641l30 25q20 15 28 15q7 -2 43 -38l59 -60l-36 -369l-131 -137
q-11 7 -27 35q-14 29 -21 58zM162 1219q12 35 23 47l14 15l127 -137l-37 -327l-73 -57q-43 -33 -48 -34q-10 3 -22.5 22.5t-18 30.5t-8.5 16z" />
    <glyph glyph-name="parenright" unicode=")" 
d="M224 1304l18 15q8 6 15.5 8.5t19.5 2.5h489q16 -3 37 -13q23 -8 23 -22q0 -8 -45 -59l-74 -81h-346zM749 62q-2 -3 -9 -10t-15.5 -14.5t-21.5 -9.5h-518q-19 0 -39 12l-26 18l129 133h377zM861 768l-39 -32q-23 -18 -32 -20q-13 3 -46 36l-51 55l44 334q14 18 27 33.5
t47.5 54t46.5 40.5q10 -1 27 -27q8 -10 15 -22t10 -18zM812 150l-9 -22q-8 -16 -33 -41q-10 5 -56 51l-70 77l42 380l56 54q32 30 44 32q13 -3 38 -22l39 -33z" />
    <glyph glyph-name="plus" unicode="+" 
d="M756 702q0 -8 -34 -39l-55 -49h-392l-56 49q-34 32 -34 39q5 6 12.5 13t26.5 22l65 51h390l46 -45q31 -31 31 -41zM107 641l30 25q20 15 28 15q7 -2 43 -38l59 -60l-36 -369l-131 -137q-11 7 -27 35q-14 29 -21 58zM162 1219q12 35 23 47l14 15l127 -137l-37 -327
l-73 -57q-43 -33 -48 -34q-10 3 -22.5 22.5t-18 30.5t-8.5 16z" />
    <glyph glyph-name="comma" unicode="," horiz-adv-x="114" 
d="M-52 33q-16 18 -16 44q0 37 28.5 66.5t67.5 29.5q47 0 79 -38q15 -21 15 -53q0 -49 -25 -92l-33 -52q-11 -19 -33.5 -39.5t-37.5 -29t-38 -18.5l36 61q10 19 15.5 38t5.5 35q0 9 -5 22l-30 8q-18 7 -29 18z" />
    <glyph glyph-name="hyphen" unicode="-" 
d="M756 702q0 -8 -34 -39l-55 -49h-392l-56 49q-34 32 -34 39q5 6 12.5 13t26.5 22l65 51h390l46 -45q31 -31 31 -41z" />
    <glyph glyph-name="hyphen" unicode="&#xad;" 
d="M756 702q0 -8 -34 -39l-55 -49h-392l-56 49q-34 32 -34 39q5 6 12.5 13t26.5 22l65 51h390l46 -45q31 -31 31 -41z" />
    <glyph glyph-name="period" unicode="." horiz-adv-x="114" 
d="M-73 -7l6 154h176l-14 -154h-168z" />
    <glyph glyph-name="slash" unicode="/" 
d="M756 702q0 -8 -34 -39l-55 -49h-392l-56 49q-34 32 -34 39q5 6 12.5 13t26.5 22l65 51h390l46 -45q31 -31 31 -41zM107 641l30 25q20 15 28 15q7 -2 43 -38l59 -60l-36 -369l-131 -137q-11 7 -27 35q-14 29 -21 58zM861 768l-39 -32q-23 -18 -32 -20q-13 3 -46 36l-51 55
l44 334q14 18 27 33.5t47.5 54t46.5 40.5q10 -1 27 -27q8 -10 15 -22t10 -18z" />
    <glyph glyph-name="zero" unicode="0" 
d="M224 1304l18 15q8 6 15.5 8.5t19.5 2.5h489q16 -3 37 -13q23 -8 23 -22q0 -8 -45 -59l-74 -81h-346zM749 62q-2 -3 -9 -10t-15.5 -14.5t-21.5 -9.5h-518q-19 0 -39 12l-26 18l129 133h377zM107 641l30 25q20 15 28 15q7 -2 43 -38l59 -60l-36 -369l-131 -137
q-11 7 -27 35q-14 29 -21 58zM162 1219q12 35 23 47l14 15l127 -137l-37 -327l-73 -57q-43 -33 -48 -34q-10 3 -22.5 22.5t-18 30.5t-8.5 16zM861 768l-39 -32q-23 -18 -32 -20q-13 3 -46 36l-51 55l44 334q14 18 27 33.5t47.5 54t46.5 40.5q10 -1 27 -27q8 -10 15 -22
t10 -18zM812 150l-9 -22q-8 -16 -33 -41q-10 5 -56 51l-70 77l42 380l56 54q32 30 44 32q13 -3 38 -22l39 -33z" />
    <glyph glyph-name="one" unicode="1" 
d="M861 768l-39 -32q-23 -18 -32 -20q-13 3 -46 36l-51 55l44 334q14 18 27 33.5t47.5 54t46.5 40.5q10 -1 27 -27q8 -10 15 -22t10 -18zM812 150l-9 -22q-8 -16 -33 -41q-10 5 -56 51l-70 77l42 380l56 54q32 30 44 32q13 -3 38 -22l39 -33z" />
    <glyph glyph-name="two" unicode="2" 
d="M224 1304l18 15q8 6 15.5 8.5t19.5 2.5h489q16 -3 37 -13q23 -8 23 -22q0 -8 -45 -59l-74 -81h-346zM749 62q-2 -3 -9 -10t-15.5 -14.5t-21.5 -9.5h-518q-19 0 -39 12l-26 18l129 133h377zM756 702q0 -8 -34 -39l-55 -49h-392l-56 49q-34 32 -34 39q5 6 12.5 13t26.5 22
l65 51h390l46 -45q31 -31 31 -41zM107 641l30 25q20 15 28 15q7 -2 43 -38l59 -60l-36 -369l-131 -137q-11 7 -27 35q-14 29 -21 58zM861 768l-39 -32q-23 -18 -32 -20q-13 3 -46 36l-51 55l44 334q14 18 27 33.5t47.5 54t46.5 40.5q10 -1 27 -27q8 -10 15 -22t10 -18z" />
    <glyph glyph-name="three" unicode="3" 
d="M224 1304l18 15q8 6 15.5 8.5t19.5 2.5h489q16 -3 37 -13q23 -8 23 -22q0 -8 -45 -59l-74 -81h-346zM749 62q-2 -3 -9 -10t-15.5 -14.5t-21.5 -9.5h-518q-19 0 -39 12l-26 18l129 133h377zM756 702q0 -8 -34 -39l-55 -49h-392l-56 49q-34 32 -34 39q5 6 12.5 13t26.5 22
l65 51h390l46 -45q31 -31 31 -41zM861 768l-39 -32q-23 -18 -32 -20q-13 3 -46 36l-51 55l44 334q14 18 27 33.5t47.5 54t46.5 40.5q10 -1 27 -27q8 -10 15 -22t10 -18zM812 150l-9 -22q-8 -16 -33 -41q-10 5 -56 51l-70 77l42 380l56 54q32 30 44 32q13 -3 38 -22l39 -33z
" />
    <glyph glyph-name="four" unicode="4" 
d="M756 702q0 -8 -34 -39l-55 -49h-392l-56 49q-34 32 -34 39q5 6 12.5 13t26.5 22l65 51h390l46 -45q31 -31 31 -41zM162 1219q12 35 23 47l14 15l127 -137l-37 -327l-73 -57q-43 -33 -48 -34q-10 3 -22.5 22.5t-18 30.5t-8.5 16zM861 768l-39 -32q-23 -18 -32 -20
q-13 3 -46 36l-51 55l44 334q14 18 27 33.5t47.5 54t46.5 40.5q10 -1 27 -27q8 -10 15 -22t10 -18zM812 150l-9 -22q-8 -16 -33 -41q-10 5 -56 51l-70 77l42 380l56 54q32 30 44 32q13 -3 38 -22l39 -33z" />
    <glyph glyph-name="five" unicode="5" 
d="M224 1304l18 15q8 6 15.5 8.5t19.5 2.5h489q16 -3 37 -13q23 -8 23 -22q0 -8 -45 -59l-74 -81h-346zM749 62q-2 -3 -9 -10t-15.5 -14.5t-21.5 -9.5h-518q-19 0 -39 12l-26 18l129 133h377zM756 702q0 -8 -34 -39l-55 -49h-392l-56 49q-34 32 -34 39q5 6 12.5 13t26.5 22
l65 51h390l46 -45q31 -31 31 -41zM162 1219q12 35 23 47l14 15l127 -137l-37 -327l-73 -57q-43 -33 -48 -34q-10 3 -22.5 22.5t-18 30.5t-8.5 16zM812 150l-9 -22q-8 -16 -33 -41q-10 5 -56 51l-70 77l42 380l56 54q32 30 44 32q13 -3 38 -22l39 -33z" />
    <glyph glyph-name="six" unicode="6" 
d="M224 1304l18 15q8 6 15.5 8.5t19.5 2.5h489q16 -3 37 -13q23 -8 23 -22q0 -8 -45 -59l-74 -81h-346zM749 62q-2 -3 -9 -10t-15.5 -14.5t-21.5 -9.5h-518q-19 0 -39 12l-26 18l129 133h377zM756 702q0 -8 -34 -39l-55 -49h-392l-56 49q-34 32 -34 39q5 6 12.5 13t26.5 22
l65 51h390l46 -45q31 -31 31 -41zM107 641l30 25q20 15 28 15q7 -2 43 -38l59 -60l-36 -369l-131 -137q-11 7 -27 35q-14 29 -21 58zM162 1219q12 35 23 47l14 15l127 -137l-37 -327l-73 -57q-43 -33 -48 -34q-10 3 -22.5 22.5t-18 30.5t-8.5 16zM812 150l-9 -22
q-8 -16 -33 -41q-10 5 -56 51l-70 77l42 380l56 54q32 30 44 32q13 -3 38 -22l39 -33z" />
    <glyph glyph-name="seven" unicode="7" 
d="M224 1304l18 15q8 6 15.5 8.5t19.5 2.5h489q16 -3 37 -13q23 -8 23 -22q0 -8 -45 -59l-74 -81h-346zM861 768l-39 -32q-23 -18 -32 -20q-13 3 -46 36l-51 55l44 334q14 18 27 33.5t47.5 54t46.5 40.5q10 -1 27 -27q8 -10 15 -22t10 -18zM812 150l-9 -22q-8 -16 -33 -41
q-10 5 -56 51l-70 77l42 380l56 54q32 30 44 32q13 -3 38 -22l39 -33z" />
    <glyph glyph-name="eight" unicode="8" 
d="M224 1304l18 15q8 6 15.5 8.5t19.5 2.5h489q16 -3 37 -13q23 -8 23 -22q0 -8 -45 -59l-74 -81h-346zM749 62q-2 -3 -9 -10t-15.5 -14.5t-21.5 -9.5h-518q-19 0 -39 12l-26 18l129 133h377zM756 702q0 -8 -34 -39l-55 -49h-392l-56 49q-34 32 -34 39q5 6 12.5 13t26.5 22
l65 51h390l46 -45q31 -31 31 -41zM107 641l30 25q20 15 28 15q7 -2 43 -38l59 -60l-36 -369l-131 -137q-11 7 -27 35q-14 29 -21 58zM162 1219q12 35 23 47l14 15l127 -137l-37 -327l-73 -57q-43 -33 -48 -34q-10 3 -22.5 22.5t-18 30.5t-8.5 16zM861 768l-39 -32
q-23 -18 -32 -20q-13 3 -46 36l-51 55l44 334q14 18 27 33.5t47.5 54t46.5 40.5q10 -1 27 -27q8 -10 15 -22t10 -18zM812 150l-9 -22q-8 -16 -33 -41q-10 5 -56 51l-70 77l42 380l56 54q32 30 44 32q13 -3 38 -22l39 -33z" />
    <glyph glyph-name="nine" unicode="9" 
d="M224 1304l18 15q8 6 15.5 8.5t19.5 2.5h489q16 -3 37 -13q23 -8 23 -22q0 -8 -45 -59l-74 -81h-346zM749 62q-2 -3 -9 -10t-15.5 -14.5t-21.5 -9.5h-518q-19 0 -39 12l-26 18l129 133h377zM756 702q0 -8 -34 -39l-55 -49h-392l-56 49q-34 32 -34 39q5 6 12.5 13t26.5 22
l65 51h390l46 -45q31 -31 31 -41zM162 1219q12 35 23 47l14 15l127 -137l-37 -327l-73 -57q-43 -33 -48 -34q-10 3 -22.5 22.5t-18 30.5t-8.5 16zM861 768l-39 -32q-23 -18 -32 -20q-13 3 -46 36l-51 55l44 334q14 18 27 33.5t47.5 54t46.5 40.5q10 -1 27 -27q8 -10 15 -22
t10 -18zM812 150l-9 -22q-8 -16 -33 -41q-10 5 -56 51l-70 77l42 380l56 54q32 30 44 32q13 -3 38 -22l39 -33z" />
    <glyph glyph-name="colon" unicode=":" horiz-adv-x="431" 
d="M132 847l13 175h189l-20 -175h-182zM103 371l14 175h189l-21 -175h-182z" />
    <glyph glyph-name="semicolon" unicode=";" 
d="M224 1304l18 15q8 6 15.5 8.5t19.5 2.5h489q16 -3 37 -13q23 -8 23 -22q0 -8 -45 -59l-74 -81h-346zM107 641l30 25q20 15 28 15q7 -2 43 -38l59 -60l-36 -369l-131 -137q-11 7 -27 35q-14 29 -21 58z" />
    <glyph glyph-name="less" unicode="&#x3c;" 
d="M749 62q-2 -3 -9 -10t-15.5 -14.5t-21.5 -9.5h-518q-19 0 -39 12l-26 18l129 133h377zM756 702q0 -8 -34 -39l-55 -49h-392l-56 49q-34 32 -34 39q5 6 12.5 13t26.5 22l65 51h390l46 -45q31 -31 31 -41zM107 641l30 25q20 15 28 15q7 -2 43 -38l59 -60l-36 -369
l-131 -137q-11 7 -27 35q-14 29 -21 58z" />
    <glyph glyph-name="equal" unicode="=" 
d="M749 62q-2 -3 -9 -10t-15.5 -14.5t-21.5 -9.5h-518q-19 0 -39 12l-26 18l129 133h377zM756 702q0 -8 -34 -39l-55 -49h-392l-56 49q-34 32 -34 39q5 6 12.5 13t26.5 22l65 51h390l46 -45q31 -31 31 -41z" />
    <glyph glyph-name="greater" unicode="&#x3e;" 
d="M749 62q-2 -3 -9 -10t-15.5 -14.5t-21.5 -9.5h-518q-19 0 -39 12l-26 18l129 133h377zM756 702q0 -8 -34 -39l-55 -49h-392l-56 49q-34 32 -34 39q5 6 12.5 13t26.5 22l65 51h390l46 -45q31 -31 31 -41zM812 150l-9 -22q-8 -16 -33 -41q-10 5 -56 51l-70 77l42 380l56 54
q32 30 44 32q13 -3 38 -22l39 -33z" />
    <glyph glyph-name="question" unicode="?" 
d="M224 1304l18 15q8 6 15.5 8.5t19.5 2.5h489q16 -3 37 -13q23 -8 23 -22q0 -8 -45 -59l-74 -81h-346zM756 702q0 -8 -34 -39l-55 -49h-392l-56 49q-34 32 -34 39q5 6 12.5 13t26.5 22l65 51h390l46 -45q31 -31 31 -41zM107 641l30 25q20 15 28 15q7 -2 43 -38l59 -60
l-36 -369l-131 -137q-11 7 -27 35q-14 29 -21 58zM861 768l-39 -32q-23 -18 -32 -20q-13 3 -46 36l-51 55l44 334q14 18 27 33.5t47.5 54t46.5 40.5q10 -1 27 -27q8 -10 15 -22t10 -18z" />
    <glyph glyph-name="A" unicode="A" 
d="M224 1304l18 15q8 6 15.5 8.5t19.5 2.5h489q16 -3 37 -13q23 -8 23 -22q0 -8 -45 -59l-74 -81h-346zM756 702q0 -8 -34 -39l-55 -49h-392l-56 49q-34 32 -34 39q5 6 12.5 13t26.5 22l65 51h390l46 -45q31 -31 31 -41zM107 641l30 25q20 15 28 15q7 -2 43 -38l59 -60
l-36 -369l-131 -137q-11 7 -27 35q-14 29 -21 58zM162 1219q12 35 23 47l14 15l127 -137l-37 -327l-73 -57q-43 -33 -48 -34q-10 3 -22.5 22.5t-18 30.5t-8.5 16zM861 768l-39 -32q-23 -18 -32 -20q-13 3 -46 36l-51 55l44 334q14 18 27 33.5t47.5 54t46.5 40.5
q10 -1 27 -27q8 -10 15 -22t10 -18zM812 150l-9 -22q-8 -16 -33 -41q-10 5 -56 51l-70 77l42 380l56 54q32 30 44 32q13 -3 38 -22l39 -33z" />
    <glyph glyph-name="B" unicode="B" 
d="M749 62q-2 -3 -9 -10t-15.5 -14.5t-21.5 -9.5h-518q-19 0 -39 12l-26 18l129 133h377zM756 702q0 -8 -34 -39l-55 -49h-392l-56 49q-34 32 -34 39q5 6 12.5 13t26.5 22l65 51h390l46 -45q31 -31 31 -41zM107 641l30 25q20 15 28 15q7 -2 43 -38l59 -60l-36 -369
l-131 -137q-11 7 -27 35q-14 29 -21 58zM162 1219q12 35 23 47l14 15l127 -137l-37 -327l-73 -57q-43 -33 -48 -34q-10 3 -22.5 22.5t-18 30.5t-8.5 16zM812 150l-9 -22q-8 -16 -33 -41q-10 5 -56 51l-70 77l42 380l56 54q32 30 44 32q13 -3 38 -22l39 -33z" />
    <glyph glyph-name="C" unicode="C" 
d="M749 62q-2 -3 -9 -10t-15.5 -14.5t-21.5 -9.5h-518q-19 0 -39 12l-26 18l129 133h377zM756 702q0 -8 -34 -39l-55 -49h-392l-56 49q-34 32 -34 39q5 6 12.5 13t26.5 22l65 51h390l46 -45q31 -31 31 -41zM107 641l30 25q20 15 28 15q7 -2 43 -38l59 -60l-36 -369
l-131 -137q-11 7 -27 35q-14 29 -21 58z" />
    <glyph glyph-name="D" unicode="D" 
d="M749 62q-2 -3 -9 -10t-15.5 -14.5t-21.5 -9.5h-518q-19 0 -39 12l-26 18l129 133h377zM756 702q0 -8 -34 -39l-55 -49h-392l-56 49q-34 32 -34 39q5 6 12.5 13t26.5 22l65 51h390l46 -45q31 -31 31 -41zM107 641l30 25q20 15 28 15q7 -2 43 -38l59 -60l-36 -369
l-131 -137q-11 7 -27 35q-14 29 -21 58zM861 768l-39 -32q-23 -18 -32 -20q-13 3 -46 36l-51 55l44 334q14 18 27 33.5t47.5 54t46.5 40.5q10 -1 27 -27q8 -10 15 -22t10 -18zM812 150l-9 -22q-8 -16 -33 -41q-10 5 -56 51l-70 77l42 380l56 54q32 30 44 32q13 -3 38 -22
l39 -33z" />
    <glyph glyph-name="E" unicode="E" 
d="M224 1304l18 15q8 6 15.5 8.5t19.5 2.5h489q16 -3 37 -13q23 -8 23 -22q0 -8 -45 -59l-74 -81h-346zM749 62q-2 -3 -9 -10t-15.5 -14.5t-21.5 -9.5h-518q-19 0 -39 12l-26 18l129 133h377zM756 702q0 -8 -34 -39l-55 -49h-392l-56 49q-34 32 -34 39q5 6 12.5 13t26.5 22
l65 51h390l46 -45q31 -31 31 -41zM107 641l30 25q20 15 28 15q7 -2 43 -38l59 -60l-36 -369l-131 -137q-11 7 -27 35q-14 29 -21 58zM162 1219q12 35 23 47l14 15l127 -137l-37 -327l-73 -57q-43 -33 -48 -34q-10 3 -22.5 22.5t-18 30.5t-8.5 16z" />
    <glyph glyph-name="F" unicode="F" 
d="M224 1304l18 15q8 6 15.5 8.5t19.5 2.5h489q16 -3 37 -13q23 -8 23 -22q0 -8 -45 -59l-74 -81h-346zM756 702q0 -8 -34 -39l-55 -49h-392l-56 49q-34 32 -34 39q5 6 12.5 13t26.5 22l65 51h390l46 -45q31 -31 31 -41zM107 641l30 25q20 15 28 15q7 -2 43 -38l59 -60
l-36 -369l-131 -137q-11 7 -27 35q-14 29 -21 58zM162 1219q12 35 23 47l14 15l127 -137l-37 -327l-73 -57q-43 -33 -48 -34q-10 3 -22.5 22.5t-18 30.5t-8.5 16z" />
    <glyph glyph-name="G" unicode="G" 
d="M224 1304l18 15q8 6 15.5 8.5t19.5 2.5h489q16 -3 37 -13q23 -8 23 -22q0 -8 -45 -59l-74 -81h-346zM749 62q-2 -3 -9 -10t-15.5 -14.5t-21.5 -9.5h-518q-19 0 -39 12l-26 18l129 133h377zM107 641l30 25q20 15 28 15q7 -2 43 -38l59 -60l-36 -369l-131 -137
q-11 7 -27 35q-14 29 -21 58zM162 1219q12 35 23 47l14 15l127 -137l-37 -327l-73 -57q-43 -33 -48 -34q-10 3 -22.5 22.5t-18 30.5t-8.5 16zM812 150l-9 -22q-8 -16 -33 -41q-10 5 -56 51l-70 77l42 380l56 54q32 30 44 32q13 -3 38 -22l39 -33z" />
    <glyph glyph-name="H" unicode="H" 
d="M756 702q0 -8 -34 -39l-55 -49h-392l-56 49q-34 32 -34 39q5 6 12.5 13t26.5 22l65 51h390l46 -45q31 -31 31 -41zM107 641l30 25q20 15 28 15q7 -2 43 -38l59 -60l-36 -369l-131 -137q-11 7 -27 35q-14 29 -21 58zM162 1219q12 35 23 47l14 15l127 -137l-37 -327
l-73 -57q-43 -33 -48 -34q-10 3 -22.5 22.5t-18 30.5t-8.5 16zM812 150l-9 -22q-8 -16 -33 -41q-10 5 -56 51l-70 77l42 380l56 54q32 30 44 32q13 -3 38 -22l39 -33z" />
    <glyph glyph-name="I" unicode="I" 
d="M861 768l-39 -32q-23 -18 -32 -20q-13 3 -46 36l-51 55l44 334q14 18 27 33.5t47.5 54t46.5 40.5q10 -1 27 -27q8 -10 15 -22t10 -18zM812 150l-9 -22q-8 -16 -33 -41q-10 5 -56 51l-70 77l42 380l56 54q32 30 44 32q13 -3 38 -22l39 -33z" />
    <glyph glyph-name="J" unicode="J" 
d="M749 62q-2 -3 -9 -10t-15.5 -14.5t-21.5 -9.5h-518q-19 0 -39 12l-26 18l129 133h377zM861 768l-39 -32q-23 -18 -32 -20q-13 3 -46 36l-51 55l44 334q14 18 27 33.5t47.5 54t46.5 40.5q10 -1 27 -27q8 -10 15 -22t10 -18zM812 150l-9 -22q-8 -16 -33 -41q-10 5 -56 51
l-70 77l42 380l56 54q32 30 44 32q13 -3 38 -22l39 -33z" />
    <glyph glyph-name="K" unicode="K" 
d="M756 702q0 -8 -34 -39l-55 -49h-392l-56 49q-34 32 -34 39q5 6 12.5 13t26.5 22l65 51h390l46 -45q31 -31 31 -41zM107 641l30 25q20 15 28 15q7 -2 43 -38l59 -60l-36 -369l-131 -137q-11 7 -27 35q-14 29 -21 58zM162 1219q12 35 23 47l14 15l127 -137l-37 -327
l-73 -57q-43 -33 -48 -34q-10 3 -22.5 22.5t-18 30.5t-8.5 16zM861 768l-39 -32q-23 -18 -32 -20q-13 3 -46 36l-51 55l44 334q14 18 27 33.5t47.5 54t46.5 40.5q10 -1 27 -27q8 -10 15 -22t10 -18zM812 150l-9 -22q-8 -16 -33 -41q-10 5 -56 51l-70 77l42 380l56 54
q32 30 44 32q13 -3 38 -22l39 -33z" />
    <glyph glyph-name="L" unicode="L" 
d="M749 62q-2 -3 -9 -10t-15.5 -14.5t-21.5 -9.5h-518q-19 0 -39 12l-26 18l129 133h377zM107 641l30 25q20 15 28 15q7 -2 43 -38l59 -60l-36 -369l-131 -137q-11 7 -27 35q-14 29 -21 58zM162 1219q12 35 23 47l14 15l127 -137l-37 -327l-73 -57q-43 -33 -48 -34
q-10 3 -22.5 22.5t-18 30.5t-8.5 16z" />
    <glyph glyph-name="M" unicode="M" 
d="M224 1304l18 15q8 6 15.5 8.5t19.5 2.5h489q16 -3 37 -13q23 -8 23 -22q0 -8 -45 -59l-74 -81h-346zM107 641l30 25q20 15 28 15q7 -2 43 -38l59 -60l-36 -369l-131 -137q-11 7 -27 35q-14 29 -21 58zM162 1219q12 35 23 47l14 15l127 -137l-37 -327l-73 -57
q-43 -33 -48 -34q-10 3 -22.5 22.5t-18 30.5t-8.5 16zM861 768l-39 -32q-23 -18 -32 -20q-13 3 -46 36l-51 55l44 334q14 18 27 33.5t47.5 54t46.5 40.5q10 -1 27 -27q8 -10 15 -22t10 -18z" />
    <glyph glyph-name="N" unicode="N" 
d="M756 702q0 -8 -34 -39l-55 -49h-392l-56 49q-34 32 -34 39q5 6 12.5 13t26.5 22l65 51h390l46 -45q31 -31 31 -41zM107 641l30 25q20 15 28 15q7 -2 43 -38l59 -60l-36 -369l-131 -137q-11 7 -27 35q-14 29 -21 58zM812 150l-9 -22q-8 -16 -33 -41q-10 5 -56 51l-70 77
l42 380l56 54q32 30 44 32q13 -3 38 -22l39 -33z" />
    <glyph glyph-name="O" unicode="O" 
d="M749 62q-2 -3 -9 -10t-15.5 -14.5t-21.5 -9.5h-518q-19 0 -39 12l-26 18l129 133h377zM756 702q0 -8 -34 -39l-55 -49h-392l-56 49q-34 32 -34 39q5 6 12.5 13t26.5 22l65 51h390l46 -45q31 -31 31 -41zM107 641l30 25q20 15 28 15q7 -2 43 -38l59 -60l-36 -369
l-131 -137q-11 7 -27 35q-14 29 -21 58zM812 150l-9 -22q-8 -16 -33 -41q-10 5 -56 51l-70 77l42 380l56 54q32 30 44 32q13 -3 38 -22l39 -33z" />
    <glyph glyph-name="P" unicode="P" 
d="M224 1304l18 15q8 6 15.5 8.5t19.5 2.5h489q16 -3 37 -13q23 -8 23 -22q0 -8 -45 -59l-74 -81h-346zM756 702q0 -8 -34 -39l-55 -49h-392l-56 49q-34 32 -34 39q5 6 12.5 13t26.5 22l65 51h390l46 -45q31 -31 31 -41zM107 641l30 25q20 15 28 15q7 -2 43 -38l59 -60
l-36 -369l-131 -137q-11 7 -27 35q-14 29 -21 58zM162 1219q12 35 23 47l14 15l127 -137l-37 -327l-73 -57q-43 -33 -48 -34q-10 3 -22.5 22.5t-18 30.5t-8.5 16zM861 768l-39 -32q-23 -18 -32 -20q-13 3 -46 36l-51 55l44 334q14 18 27 33.5t47.5 54t46.5 40.5
q10 -1 27 -27q8 -10 15 -22t10 -18z" />
    <glyph glyph-name="Q" unicode="Q" 
d="M224 1304l18 15q8 6 15.5 8.5t19.5 2.5h489q16 -3 37 -13q23 -8 23 -22q0 -8 -45 -59l-74 -81h-346zM756 702q0 -8 -34 -39l-55 -49h-392l-56 49q-34 32 -34 39q5 6 12.5 13t26.5 22l65 51h390l46 -45q31 -31 31 -41zM162 1219q12 35 23 47l14 15l127 -137l-37 -327
l-73 -57q-43 -33 -48 -34q-10 3 -22.5 22.5t-18 30.5t-8.5 16zM861 768l-39 -32q-23 -18 -32 -20q-13 3 -46 36l-51 55l44 334q14 18 27 33.5t47.5 54t46.5 40.5q10 -1 27 -27q8 -10 15 -22t10 -18zM812 150l-9 -22q-8 -16 -33 -41q-10 5 -56 51l-70 77l42 380l56 54
q32 30 44 32q13 -3 38 -22l39 -33z" />
    <glyph glyph-name="R" unicode="R" 
d="M756 702q0 -8 -34 -39l-55 -49h-392l-56 49q-34 32 -34 39q5 6 12.5 13t26.5 22l65 51h390l46 -45q31 -31 31 -41zM107 641l30 25q20 15 28 15q7 -2 43 -38l59 -60l-36 -369l-131 -137q-11 7 -27 35q-14 29 -21 58z" />
    <glyph glyph-name="S" unicode="S" 
d="M224 1304l18 15q8 6 15.5 8.5t19.5 2.5h489q16 -3 37 -13q23 -8 23 -22q0 -8 -45 -59l-74 -81h-346zM749 62q-2 -3 -9 -10t-15.5 -14.5t-21.5 -9.5h-518q-19 0 -39 12l-26 18l129 133h377zM756 702q0 -8 -34 -39l-55 -49h-392l-56 49q-34 32 -34 39q5 6 12.5 13t26.5 22
l65 51h390l46 -45q31 -31 31 -41zM162 1219q12 35 23 47l14 15l127 -137l-37 -327l-73 -57q-43 -33 -48 -34q-10 3 -22.5 22.5t-18 30.5t-8.5 16zM812 150l-9 -22q-8 -16 -33 -41q-10 5 -56 51l-70 77l42 380l56 54q32 30 44 32q13 -3 38 -22l39 -33z" />
    <glyph glyph-name="T" unicode="T" 
d="M749 62q-2 -3 -9 -10t-15.5 -14.5t-21.5 -9.5h-518q-19 0 -39 12l-26 18l129 133h377zM756 702q0 -8 -34 -39l-55 -49h-392l-56 49q-34 32 -34 39q5 6 12.5 13t26.5 22l65 51h390l46 -45q31 -31 31 -41zM107 641l30 25q20 15 28 15q7 -2 43 -38l59 -60l-36 -369
l-131 -137q-11 7 -27 35q-14 29 -21 58zM162 1219q12 35 23 47l14 15l127 -137l-37 -327l-73 -57q-43 -33 -48 -34q-10 3 -22.5 22.5t-18 30.5t-8.5 16z" />
    <glyph glyph-name="U" unicode="U" 
d="M749 62q-2 -3 -9 -10t-15.5 -14.5t-21.5 -9.5h-518q-19 0 -39 12l-26 18l129 133h377zM107 641l30 25q20 15 28 15q7 -2 43 -38l59 -60l-36 -369l-131 -137q-11 7 -27 35q-14 29 -21 58zM162 1219q12 35 23 47l14 15l127 -137l-37 -327l-73 -57q-43 -33 -48 -34
q-10 3 -22.5 22.5t-18 30.5t-8.5 16zM861 768l-39 -32q-23 -18 -32 -20q-13 3 -46 36l-51 55l44 334q14 18 27 33.5t47.5 54t46.5 40.5q10 -1 27 -27q8 -10 15 -22t10 -18zM812 150l-9 -22q-8 -16 -33 -41q-10 5 -56 51l-70 77l42 380l56 54q32 30 44 32q13 -3 38 -22
l39 -33z" />
    <glyph glyph-name="V" unicode="V" 
d="M749 62q-2 -3 -9 -10t-15.5 -14.5t-21.5 -9.5h-518q-19 0 -39 12l-26 18l129 133h377zM107 641l30 25q20 15 28 15q7 -2 43 -38l59 -60l-36 -369l-131 -137q-11 7 -27 35q-14 29 -21 58zM812 150l-9 -22q-8 -16 -33 -41q-10 5 -56 51l-70 77l42 380l56 54q32 30 44 32
q13 -3 38 -22l39 -33z" />
    <glyph glyph-name="W" unicode="W" 
d="M749 62q-2 -3 -9 -10t-15.5 -14.5t-21.5 -9.5h-518q-19 0 -39 12l-26 18l129 133h377zM107 641l30 25q20 15 28 15q7 -2 43 -38l59 -60l-36 -369l-131 -137q-11 7 -27 35q-14 29 -21 58zM162 1219q12 35 23 47l14 15l127 -137l-37 -327l-73 -57q-43 -33 -48 -34
q-10 3 -22.5 22.5t-18 30.5t-8.5 16zM812 150l-9 -22q-8 -16 -33 -41q-10 5 -56 51l-70 77l42 380l56 54q32 30 44 32q13 -3 38 -22l39 -33z" />
    <glyph glyph-name="X" unicode="X" 
d="M756 702q0 -8 -34 -39l-55 -49h-392l-56 49q-34 32 -34 39q5 6 12.5 13t26.5 22l65 51h390l46 -45q31 -31 31 -41zM107 641l30 25q20 15 28 15q7 -2 43 -38l59 -60l-36 -369l-131 -137q-11 7 -27 35q-14 29 -21 58zM162 1219q12 35 23 47l14 15l127 -137l-37 -327
l-73 -57q-43 -33 -48 -34q-10 3 -22.5 22.5t-18 30.5t-8.5 16zM861 768l-39 -32q-23 -18 -32 -20q-13 3 -46 36l-51 55l44 334q14 18 27 33.5t47.5 54t46.5 40.5q10 -1 27 -27q8 -10 15 -22t10 -18zM812 150l-9 -22q-8 -16 -33 -41q-10 5 -56 51l-70 77l42 380l56 54
q32 30 44 32q13 -3 38 -22l39 -33z" />
    <glyph glyph-name="Y" unicode="Y" 
d="M749 62q-2 -3 -9 -10t-15.5 -14.5t-21.5 -9.5h-518q-19 0 -39 12l-26 18l129 133h377zM756 702q0 -8 -34 -39l-55 -49h-392l-56 49q-34 32 -34 39q5 6 12.5 13t26.5 22l65 51h390l46 -45q31 -31 31 -41zM162 1219q12 35 23 47l14 15l127 -137l-37 -327l-73 -57
q-43 -33 -48 -34q-10 3 -22.5 22.5t-18 30.5t-8.5 16zM861 768l-39 -32q-23 -18 -32 -20q-13 3 -46 36l-51 55l44 334q14 18 27 33.5t47.5 54t46.5 40.5q10 -1 27 -27q8 -10 15 -22t10 -18zM812 150l-9 -22q-8 -16 -33 -41q-10 5 -56 51l-70 77l42 380l56 54q32 30 44 32
q13 -3 38 -22l39 -33z" />
    <glyph glyph-name="Z" unicode="Z" 
d="M224 1304l18 15q8 6 15.5 8.5t19.5 2.5h489q16 -3 37 -13q23 -8 23 -22q0 -8 -45 -59l-74 -81h-346zM749 62q-2 -3 -9 -10t-15.5 -14.5t-21.5 -9.5h-518q-19 0 -39 12l-26 18l129 133h377zM756 702q0 -8 -34 -39l-55 -49h-392l-56 49q-34 32 -34 39q5 6 12.5 13t26.5 22
l65 51h390l46 -45q31 -31 31 -41zM107 641l30 25q20 15 28 15q7 -2 43 -38l59 -60l-36 -369l-131 -137q-11 7 -27 35q-14 29 -21 58zM861 768l-39 -32q-23 -18 -32 -20q-13 3 -46 36l-51 55l44 334q14 18 27 33.5t47.5 54t46.5 40.5q10 -1 27 -27q8 -10 15 -22t10 -18z" />
    <glyph glyph-name="bracketleft" unicode="[" 
d="M224 1304l18 15q8 6 15.5 8.5t19.5 2.5h489q16 -3 37 -13q23 -8 23 -22q0 -8 -45 -59l-74 -81h-346zM749 62q-2 -3 -9 -10t-15.5 -14.5t-21.5 -9.5h-518q-19 0 -39 12l-26 18l129 133h377zM107 641l30 25q20 15 28 15q7 -2 43 -38l59 -60l-36 -369l-131 -137
q-11 7 -27 35q-14 29 -21 58zM162 1219q12 35 23 47l14 15l127 -137l-37 -327l-73 -57q-43 -33 -48 -34q-10 3 -22.5 22.5t-18 30.5t-8.5 16z" />
    <glyph glyph-name="backslash" unicode="\" 
d="M756 702q0 -8 -34 -39l-55 -49h-392l-56 49q-34 32 -34 39q5 6 12.5 13t26.5 22l65 51h390l46 -45q31 -31 31 -41zM162 1219q12 35 23 47l14 15l127 -137l-37 -327l-73 -57q-43 -33 -48 -34q-10 3 -22.5 22.5t-18 30.5t-8.5 16zM812 150l-9 -22q-8 -16 -33 -41
q-10 5 -56 51l-70 77l42 380l56 54q32 30 44 32q13 -3 38 -22l39 -33z" />
    <glyph glyph-name="bracketright" unicode="]" 
d="M224 1304l18 15q8 6 15.5 8.5t19.5 2.5h489q16 -3 37 -13q23 -8 23 -22q0 -8 -45 -59l-74 -81h-346zM749 62q-2 -3 -9 -10t-15.5 -14.5t-21.5 -9.5h-518q-19 0 -39 12l-26 18l129 133h377zM861 768l-39 -32q-23 -18 -32 -20q-13 3 -46 36l-51 55l44 334q14 18 27 33.5
t47.5 54t46.5 40.5q10 -1 27 -27q8 -10 15 -22t10 -18zM812 150l-9 -22q-8 -16 -33 -41q-10 5 -56 51l-70 77l42 380l56 54q32 30 44 32q13 -3 38 -22l39 -33z" />
    <glyph glyph-name="asciicircum" unicode="^" 
d="M224 1304l18 15q8 6 15.5 8.5t19.5 2.5h489q16 -3 37 -13q23 -8 23 -22q0 -8 -45 -59l-74 -81h-346zM162 1219q12 35 23 47l14 15l127 -137l-37 -327l-73 -57q-43 -33 -48 -34q-10 3 -22.5 22.5t-18 30.5t-8.5 16zM861 768l-39 -32q-23 -18 -32 -20q-13 3 -46 36l-51 55
l44 334q14 18 27 33.5t47.5 54t46.5 40.5q10 -1 27 -27q8 -10 15 -22t10 -18z" />
    <glyph glyph-name="underscore" unicode="_" 
d="M756 702q0 -8 -34 -39l-55 -49h-392l-56 49q-34 32 -34 39q5 6 12.5 13t26.5 22l65 51h390l46 -45q31 -31 31 -41z" />
    <glyph glyph-name="grave" unicode="`" 
d="M162 1219q12 35 23 47l14 15l127 -137l-37 -327l-73 -57q-43 -33 -48 -34q-10 3 -22.5 22.5t-18 30.5t-8.5 16z" />
    <glyph glyph-name="a" unicode="a" 
d="M224 1304l18 15q8 6 15.5 8.5t19.5 2.5h489q16 -3 37 -13q23 -8 23 -22q0 -8 -45 -59l-74 -81h-346zM756 702q0 -8 -34 -39l-55 -49h-392l-56 49q-34 32 -34 39q5 6 12.5 13t26.5 22l65 51h390l46 -45q31 -31 31 -41zM107 641l30 25q20 15 28 15q7 -2 43 -38l59 -60
l-36 -369l-131 -137q-11 7 -27 35q-14 29 -21 58zM162 1219q12 35 23 47l14 15l127 -137l-37 -327l-73 -57q-43 -33 -48 -34q-10 3 -22.5 22.5t-18 30.5t-8.5 16zM861 768l-39 -32q-23 -18 -32 -20q-13 3 -46 36l-51 55l44 334q14 18 27 33.5t47.5 54t46.5 40.5
q10 -1 27 -27q8 -10 15 -22t10 -18zM812 150l-9 -22q-8 -16 -33 -41q-10 5 -56 51l-70 77l42 380l56 54q32 30 44 32q13 -3 38 -22l39 -33z" />
    <glyph glyph-name="b" unicode="b" 
d="M749 62q-2 -3 -9 -10t-15.5 -14.5t-21.5 -9.5h-518q-19 0 -39 12l-26 18l129 133h377zM756 702q0 -8 -34 -39l-55 -49h-392l-56 49q-34 32 -34 39q5 6 12.5 13t26.5 22l65 51h390l46 -45q31 -31 31 -41zM107 641l30 25q20 15 28 15q7 -2 43 -38l59 -60l-36 -369
l-131 -137q-11 7 -27 35q-14 29 -21 58zM162 1219q12 35 23 47l14 15l127 -137l-37 -327l-73 -57q-43 -33 -48 -34q-10 3 -22.5 22.5t-18 30.5t-8.5 16zM812 150l-9 -22q-8 -16 -33 -41q-10 5 -56 51l-70 77l42 380l56 54q32 30 44 32q13 -3 38 -22l39 -33z" />
    <glyph glyph-name="c" unicode="c" 
d="M749 62q-2 -3 -9 -10t-15.5 -14.5t-21.5 -9.5h-518q-19 0 -39 12l-26 18l129 133h377zM756 702q0 -8 -34 -39l-55 -49h-392l-56 49q-34 32 -34 39q5 6 12.5 13t26.5 22l65 51h390l46 -45q31 -31 31 -41zM107 641l30 25q20 15 28 15q7 -2 43 -38l59 -60l-36 -369
l-131 -137q-11 7 -27 35q-14 29 -21 58z" />
    <glyph glyph-name="d" unicode="d" 
d="M749 62q-2 -3 -9 -10t-15.5 -14.5t-21.5 -9.5h-518q-19 0 -39 12l-26 18l129 133h377zM756 702q0 -8 -34 -39l-55 -49h-392l-56 49q-34 32 -34 39q5 6 12.5 13t26.5 22l65 51h390l46 -45q31 -31 31 -41zM107 641l30 25q20 15 28 15q7 -2 43 -38l59 -60l-36 -369
l-131 -137q-11 7 -27 35q-14 29 -21 58zM861 768l-39 -32q-23 -18 -32 -20q-13 3 -46 36l-51 55l44 334q14 18 27 33.5t47.5 54t46.5 40.5q10 -1 27 -27q8 -10 15 -22t10 -18zM812 150l-9 -22q-8 -16 -33 -41q-10 5 -56 51l-70 77l42 380l56 54q32 30 44 32q13 -3 38 -22
l39 -33z" />
    <glyph glyph-name="e" unicode="e" 
d="M224 1304l18 15q8 6 15.5 8.5t19.5 2.5h489q16 -3 37 -13q23 -8 23 -22q0 -8 -45 -59l-74 -81h-346zM749 62q-2 -3 -9 -10t-15.5 -14.5t-21.5 -9.5h-518q-19 0 -39 12l-26 18l129 133h377zM756 702q0 -8 -34 -39l-55 -49h-392l-56 49q-34 32 -34 39q5 6 12.5 13t26.5 22
l65 51h390l46 -45q31 -31 31 -41zM107 641l30 25q20 15 28 15q7 -2 43 -38l59 -60l-36 -369l-131 -137q-11 7 -27 35q-14 29 -21 58zM162 1219q12 35 23 47l14 15l127 -137l-37 -327l-73 -57q-43 -33 -48 -34q-10 3 -22.5 22.5t-18 30.5t-8.5 16z" />
    <glyph glyph-name="f" unicode="f" 
d="M224 1304l18 15q8 6 15.5 8.5t19.5 2.5h489q16 -3 37 -13q23 -8 23 -22q0 -8 -45 -59l-74 -81h-346zM756 702q0 -8 -34 -39l-55 -49h-392l-56 49q-34 32 -34 39q5 6 12.5 13t26.5 22l65 51h390l46 -45q31 -31 31 -41zM107 641l30 25q20 15 28 15q7 -2 43 -38l59 -60
l-36 -369l-131 -137q-11 7 -27 35q-14 29 -21 58zM162 1219q12 35 23 47l14 15l127 -137l-37 -327l-73 -57q-43 -33 -48 -34q-10 3 -22.5 22.5t-18 30.5t-8.5 16z" />
    <glyph glyph-name="g" unicode="g" 
d="M224 1304l18 15q8 6 15.5 8.5t19.5 2.5h489q16 -3 37 -13q23 -8 23 -22q0 -8 -45 -59l-74 -81h-346zM749 62q-2 -3 -9 -10t-15.5 -14.5t-21.5 -9.5h-518q-19 0 -39 12l-26 18l129 133h377zM107 641l30 25q20 15 28 15q7 -2 43 -38l59 -60l-36 -369l-131 -137
q-11 7 -27 35q-14 29 -21 58zM162 1219q12 35 23 47l14 15l127 -137l-37 -327l-73 -57q-43 -33 -48 -34q-10 3 -22.5 22.5t-18 30.5t-8.5 16zM812 150l-9 -22q-8 -16 -33 -41q-10 5 -56 51l-70 77l42 380l56 54q32 30 44 32q13 -3 38 -22l39 -33z" />
    <glyph glyph-name="h" unicode="h" 
d="M756 702q0 -8 -34 -39l-55 -49h-392l-56 49q-34 32 -34 39q5 6 12.5 13t26.5 22l65 51h390l46 -45q31 -31 31 -41zM107 641l30 25q20 15 28 15q7 -2 43 -38l59 -60l-36 -369l-131 -137q-11 7 -27 35q-14 29 -21 58zM162 1219q12 35 23 47l14 15l127 -137l-37 -327
l-73 -57q-43 -33 -48 -34q-10 3 -22.5 22.5t-18 30.5t-8.5 16zM812 150l-9 -22q-8 -16 -33 -41q-10 5 -56 51l-70 77l42 380l56 54q32 30 44 32q13 -3 38 -22l39 -33z" />
    <glyph glyph-name="i" unicode="i" 
d="M861 768l-39 -32q-23 -18 -32 -20q-13 3 -46 36l-51 55l44 334q14 18 27 33.5t47.5 54t46.5 40.5q10 -1 27 -27q8 -10 15 -22t10 -18zM812 150l-9 -22q-8 -16 -33 -41q-10 5 -56 51l-70 77l42 380l56 54q32 30 44 32q13 -3 38 -22l39 -33z" />
    <glyph glyph-name="j" unicode="j" 
d="M749 62q-2 -3 -9 -10t-15.5 -14.5t-21.5 -9.5h-518q-19 0 -39 12l-26 18l129 133h377zM861 768l-39 -32q-23 -18 -32 -20q-13 3 -46 36l-51 55l44 334q14 18 27 33.5t47.5 54t46.5 40.5q10 -1 27 -27q8 -10 15 -22t10 -18zM812 150l-9 -22q-8 -16 -33 -41q-10 5 -56 51
l-70 77l42 380l56 54q32 30 44 32q13 -3 38 -22l39 -33z" />
    <glyph glyph-name="k" unicode="k" 
d="M756 702q0 -8 -34 -39l-55 -49h-392l-56 49q-34 32 -34 39q5 6 12.5 13t26.5 22l65 51h390l46 -45q31 -31 31 -41zM107 641l30 25q20 15 28 15q7 -2 43 -38l59 -60l-36 -369l-131 -137q-11 7 -27 35q-14 29 -21 58zM162 1219q12 35 23 47l14 15l127 -137l-37 -327
l-73 -57q-43 -33 -48 -34q-10 3 -22.5 22.5t-18 30.5t-8.5 16zM861 768l-39 -32q-23 -18 -32 -20q-13 3 -46 36l-51 55l44 334q14 18 27 33.5t47.5 54t46.5 40.5q10 -1 27 -27q8 -10 15 -22t10 -18zM812 150l-9 -22q-8 -16 -33 -41q-10 5 -56 51l-70 77l42 380l56 54
q32 30 44 32q13 -3 38 -22l39 -33z" />
    <glyph glyph-name="l" unicode="l" 
d="M749 62q-2 -3 -9 -10t-15.5 -14.5t-21.5 -9.5h-518q-19 0 -39 12l-26 18l129 133h377zM107 641l30 25q20 15 28 15q7 -2 43 -38l59 -60l-36 -369l-131 -137q-11 7 -27 35q-14 29 -21 58zM162 1219q12 35 23 47l14 15l127 -137l-37 -327l-73 -57q-43 -33 -48 -34
q-10 3 -22.5 22.5t-18 30.5t-8.5 16z" />
    <glyph glyph-name="m" unicode="m" 
d="M224 1304l18 15q8 6 15.5 8.5t19.5 2.5h489q16 -3 37 -13q23 -8 23 -22q0 -8 -45 -59l-74 -81h-346zM107 641l30 25q20 15 28 15q7 -2 43 -38l59 -60l-36 -369l-131 -137q-11 7 -27 35q-14 29 -21 58zM162 1219q12 35 23 47l14 15l127 -137l-37 -327l-73 -57
q-43 -33 -48 -34q-10 3 -22.5 22.5t-18 30.5t-8.5 16zM861 768l-39 -32q-23 -18 -32 -20q-13 3 -46 36l-51 55l44 334q14 18 27 33.5t47.5 54t46.5 40.5q10 -1 27 -27q8 -10 15 -22t10 -18z" />
    <glyph glyph-name="n" unicode="n" 
d="M756 702q0 -8 -34 -39l-55 -49h-392l-56 49q-34 32 -34 39q5 6 12.5 13t26.5 22l65 51h390l46 -45q31 -31 31 -41zM107 641l30 25q20 15 28 15q7 -2 43 -38l59 -60l-36 -369l-131 -137q-11 7 -27 35q-14 29 -21 58zM812 150l-9 -22q-8 -16 -33 -41q-10 5 -56 51l-70 77
l42 380l56 54q32 30 44 32q13 -3 38 -22l39 -33z" />
    <glyph glyph-name="o" unicode="o" 
d="M749 62q-2 -3 -9 -10t-15.5 -14.5t-21.5 -9.5h-518q-19 0 -39 12l-26 18l129 133h377zM756 702q0 -8 -34 -39l-55 -49h-392l-56 49q-34 32 -34 39q5 6 12.5 13t26.5 22l65 51h390l46 -45q31 -31 31 -41zM107 641l30 25q20 15 28 15q7 -2 43 -38l59 -60l-36 -369
l-131 -137q-11 7 -27 35q-14 29 -21 58zM812 150l-9 -22q-8 -16 -33 -41q-10 5 -56 51l-70 77l42 380l56 54q32 30 44 32q13 -3 38 -22l39 -33z" />
    <glyph glyph-name="p" unicode="p" 
d="M224 1304l18 15q8 6 15.5 8.5t19.5 2.5h489q16 -3 37 -13q23 -8 23 -22q0 -8 -45 -59l-74 -81h-346zM756 702q0 -8 -34 -39l-55 -49h-392l-56 49q-34 32 -34 39q5 6 12.5 13t26.5 22l65 51h390l46 -45q31 -31 31 -41zM107 641l30 25q20 15 28 15q7 -2 43 -38l59 -60
l-36 -369l-131 -137q-11 7 -27 35q-14 29 -21 58zM162 1219q12 35 23 47l14 15l127 -137l-37 -327l-73 -57q-43 -33 -48 -34q-10 3 -22.5 22.5t-18 30.5t-8.5 16zM861 768l-39 -32q-23 -18 -32 -20q-13 3 -46 36l-51 55l44 334q14 18 27 33.5t47.5 54t46.5 40.5
q10 -1 27 -27q8 -10 15 -22t10 -18z" />
    <glyph glyph-name="q" unicode="q" 
d="M224 1304l18 15q8 6 15.5 8.5t19.5 2.5h489q16 -3 37 -13q23 -8 23 -22q0 -8 -45 -59l-74 -81h-346zM756 702q0 -8 -34 -39l-55 -49h-392l-56 49q-34 32 -34 39q5 6 12.5 13t26.5 22l65 51h390l46 -45q31 -31 31 -41zM162 1219q12 35 23 47l14 15l127 -137l-37 -327
l-73 -57q-43 -33 -48 -34q-10 3 -22.5 22.5t-18 30.5t-8.5 16zM861 768l-39 -32q-23 -18 -32 -20q-13 3 -46 36l-51 55l44 334q14 18 27 33.5t47.5 54t46.5 40.5q10 -1 27 -27q8 -10 15 -22t10 -18zM812 150l-9 -22q-8 -16 -33 -41q-10 5 -56 51l-70 77l42 380l56 54
q32 30 44 32q13 -3 38 -22l39 -33z" />
    <glyph glyph-name="r" unicode="r" 
d="M756 702q0 -8 -34 -39l-55 -49h-392l-56 49q-34 32 -34 39q5 6 12.5 13t26.5 22l65 51h390l46 -45q31 -31 31 -41zM107 641l30 25q20 15 28 15q7 -2 43 -38l59 -60l-36 -369l-131 -137q-11 7 -27 35q-14 29 -21 58z" />
    <glyph glyph-name="s" unicode="s" 
d="M224 1304l18 15q8 6 15.5 8.5t19.5 2.5h489q16 -3 37 -13q23 -8 23 -22q0 -8 -45 -59l-74 -81h-346zM749 62q-2 -3 -9 -10t-15.5 -14.5t-21.5 -9.5h-518q-19 0 -39 12l-26 18l129 133h377zM756 702q0 -8 -34 -39l-55 -49h-392l-56 49q-34 32 -34 39q5 6 12.5 13t26.5 22
l65 51h390l46 -45q31 -31 31 -41zM162 1219q12 35 23 47l14 15l127 -137l-37 -327l-73 -57q-43 -33 -48 -34q-10 3 -22.5 22.5t-18 30.5t-8.5 16zM812 150l-9 -22q-8 -16 -33 -41q-10 5 -56 51l-70 77l42 380l56 54q32 30 44 32q13 -3 38 -22l39 -33z" />
    <glyph glyph-name="t" unicode="t" 
d="M749 62q-2 -3 -9 -10t-15.5 -14.5t-21.5 -9.5h-518q-19 0 -39 12l-26 18l129 133h377zM756 702q0 -8 -34 -39l-55 -49h-392l-56 49q-34 32 -34 39q5 6 12.5 13t26.5 22l65 51h390l46 -45q31 -31 31 -41zM107 641l30 25q20 15 28 15q7 -2 43 -38l59 -60l-36 -369
l-131 -137q-11 7 -27 35q-14 29 -21 58zM162 1219q12 35 23 47l14 15l127 -137l-37 -327l-73 -57q-43 -33 -48 -34q-10 3 -22.5 22.5t-18 30.5t-8.5 16z" />
    <glyph glyph-name="u" unicode="u" 
d="M749 62q-2 -3 -9 -10t-15.5 -14.5t-21.5 -9.5h-518q-19 0 -39 12l-26 18l129 133h377zM107 641l30 25q20 15 28 15q7 -2 43 -38l59 -60l-36 -369l-131 -137q-11 7 -27 35q-14 29 -21 58zM162 1219q12 35 23 47l14 15l127 -137l-37 -327l-73 -57q-43 -33 -48 -34
q-10 3 -22.5 22.5t-18 30.5t-8.5 16zM861 768l-39 -32q-23 -18 -32 -20q-13 3 -46 36l-51 55l44 334q14 18 27 33.5t47.5 54t46.5 40.5q10 -1 27 -27q8 -10 15 -22t10 -18zM812 150l-9 -22q-8 -16 -33 -41q-10 5 -56 51l-70 77l42 380l56 54q32 30 44 32q13 -3 38 -22
l39 -33z" />
    <glyph glyph-name="v" unicode="v" 
d="M749 62q-2 -3 -9 -10t-15.5 -14.5t-21.5 -9.5h-518q-19 0 -39 12l-26 18l129 133h377zM107 641l30 25q20 15 28 15q7 -2 43 -38l59 -60l-36 -369l-131 -137q-11 7 -27 35q-14 29 -21 58zM812 150l-9 -22q-8 -16 -33 -41q-10 5 -56 51l-70 77l42 380l56 54q32 30 44 32
q13 -3 38 -22l39 -33z" />
    <glyph glyph-name="w" unicode="w" 
d="M749 62q-2 -3 -9 -10t-15.5 -14.5t-21.5 -9.5h-518q-19 0 -39 12l-26 18l129 133h377zM107 641l30 25q20 15 28 15q7 -2 43 -38l59 -60l-36 -369l-131 -137q-11 7 -27 35q-14 29 -21 58zM162 1219q12 35 23 47l14 15l127 -137l-37 -327l-73 -57q-43 -33 -48 -34
q-10 3 -22.5 22.5t-18 30.5t-8.5 16zM812 150l-9 -22q-8 -16 -33 -41q-10 5 -56 51l-70 77l42 380l56 54q32 30 44 32q13 -3 38 -22l39 -33z" />
    <glyph glyph-name="x" unicode="x" 
d="M756 702q0 -8 -34 -39l-55 -49h-392l-56 49q-34 32 -34 39q5 6 12.5 13t26.5 22l65 51h390l46 -45q31 -31 31 -41zM107 641l30 25q20 15 28 15q7 -2 43 -38l59 -60l-36 -369l-131 -137q-11 7 -27 35q-14 29 -21 58zM162 1219q12 35 23 47l14 15l127 -137l-37 -327
l-73 -57q-43 -33 -48 -34q-10 3 -22.5 22.5t-18 30.5t-8.5 16zM861 768l-39 -32q-23 -18 -32 -20q-13 3 -46 36l-51 55l44 334q14 18 27 33.5t47.5 54t46.5 40.5q10 -1 27 -27q8 -10 15 -22t10 -18zM812 150l-9 -22q-8 -16 -33 -41q-10 5 -56 51l-70 77l42 380l56 54
q32 30 44 32q13 -3 38 -22l39 -33z" />
    <glyph glyph-name="y" unicode="y" 
d="M749 62q-2 -3 -9 -10t-15.5 -14.5t-21.5 -9.5h-518q-19 0 -39 12l-26 18l129 133h377zM756 702q0 -8 -34 -39l-55 -49h-392l-56 49q-34 32 -34 39q5 6 12.5 13t26.5 22l65 51h390l46 -45q31 -31 31 -41zM162 1219q12 35 23 47l14 15l127 -137l-37 -327l-73 -57
q-43 -33 -48 -34q-10 3 -22.5 22.5t-18 30.5t-8.5 16zM861 768l-39 -32q-23 -18 -32 -20q-13 3 -46 36l-51 55l44 334q14 18 27 33.5t47.5 54t46.5 40.5q10 -1 27 -27q8 -10 15 -22t10 -18zM812 150l-9 -22q-8 -16 -33 -41q-10 5 -56 51l-70 77l42 380l56 54q32 30 44 32
q13 -3 38 -22l39 -33z" />
    <glyph glyph-name="z" unicode="z" 
d="M224 1304l18 15q8 6 15.5 8.5t19.5 2.5h489q16 -3 37 -13q23 -8 23 -22q0 -8 -45 -59l-74 -81h-346zM749 62q-2 -3 -9 -10t-15.5 -14.5t-21.5 -9.5h-518q-19 0 -39 12l-26 18l129 133h377zM756 702q0 -8 -34 -39l-55 -49h-392l-56 49q-34 32 -34 39q5 6 12.5 13t26.5 22
l65 51h390l46 -45q31 -31 31 -41zM107 641l30 25q20 15 28 15q7 -2 43 -38l59 -60l-36 -369l-131 -137q-11 7 -27 35q-14 29 -21 58zM861 768l-39 -32q-23 -18 -32 -20q-13 3 -46 36l-51 55l44 334q14 18 27 33.5t47.5 54t46.5 40.5q10 -1 27 -27q8 -10 15 -22t10 -18z" />
    <glyph glyph-name="asciitilde" unicode="~" 
d="M224 1304l18 15q8 6 15.5 8.5t19.5 2.5h489q16 -3 37 -13q23 -8 23 -22q0 -8 -45 -59l-74 -81h-346z" />
    <glyph glyph-name="nonbreakingspace" unicode="&#xa0;" 
 />
    <glyph glyph-name="Otilde" unicode="&#xd5;" horiz-adv-x="77" 
d="M14 1272q-16 17 -16 44q0 35 30 68q28 28 67 28q46 0 70 -29t24 -62q0 -48 -28.5 -97t-55 -80.5t-84.5 -53.5q15 21 30.5 50.5t21.5 48t6 35.5q0 10 -6 22l-30 8q-19 8 -29 18z" />
    </font>
</defs>
</svg>
