<?xml version="1.0" standalone="no"?>
<!DOCTYPE svg PUBLIC "-//W3C//DTD SVG 1.1//EN" "http://www.w3.org/Graphics/SVG/1.1/DTD/svg11.dtd" >
<svg xmlns="http://www.w3.org/2000/svg" xmlns:xlink="http://www.w3.org/1999/xlink" version="1.1">
<metadata>
Created by FontForge 20170924 at Mon Aug 28 19:30:50 1995
 By www-data
(c) Copyright Beijing HANYI KEYIN Information Technology Co., Ltd. 1994
</metadata>
<defs>
<font id="HYk2gj" horiz-adv-x="2048" >
  <font-face 
    font-family="0"
    font-weight="400"
    font-stretch="normal"
    units-per-em="2048"
    panose-1="2 1 6 9 0 1 1 1 1 1"
    ascent="1638"
    descent="-410"
    x-height="995"
    cap-height="1286"
    bbox="0 -419 2048 1638"
    underline-thickness="102"
    underline-position="-766"
    unicode-range="U+0001-FFE5"
  />
<missing-glyph 
 />
    <glyph glyph-name=".notdef" 
 />
    <glyph glyph-name="glyph1" horiz-adv-x="1024" 
 />
    <glyph glyph-name="glyph1" horiz-adv-x="1024" 
 />
    <glyph glyph-name="uni000D" unicode="&#xd;" 
 />
    <glyph glyph-name="uni0001" 
 />
    <glyph glyph-name="uni0002" 
 />
    <glyph glyph-name="uni0003" 
 />
    <glyph glyph-name="uni0004" 
 />
    <glyph glyph-name="uni0005" 
 />
    <glyph glyph-name="uni0006" 
 />
    <glyph glyph-name="uni0007" 
 />
    <glyph glyph-name="uni0008" horiz-adv-x="0" 
 />
    <glyph glyph-name="uni0009" unicode="&#x9;" horiz-adv-x="1024" 
 />
    <glyph glyph-name="uni000A" unicode="&#xa;" 
 />
    <glyph glyph-name="uni000B" 
 />
    <glyph glyph-name="uni000C" 
 />
    <glyph glyph-name="uni000E" 
 />
    <glyph glyph-name="uni000F" 
 />
    <glyph glyph-name="uni0010" 
 />
    <glyph glyph-name="uni0011" 
 />
    <glyph glyph-name="uni0012" 
 />
    <glyph glyph-name="uni0013" 
 />
    <glyph glyph-name="uni0014" 
 />
    <glyph glyph-name="uni0015" 
 />
    <glyph glyph-name="uni0016" 
 />
    <glyph glyph-name="uni0017" 
 />
    <glyph glyph-name="uni0018" 
 />
    <glyph glyph-name="uni0019" 
 />
    <glyph glyph-name="uni001A" 
 />
    <glyph glyph-name="uni001B" 
 />
    <glyph glyph-name="uni001C" 
 />
    <glyph glyph-name="uni001D" horiz-adv-x="0" 
 />
    <glyph glyph-name="uni001E" 
 />
    <glyph glyph-name="uni001F" horiz-adv-x="1024" 
d="M1005 1121l-478 -1051l-503 1051h981z" />
    <glyph glyph-name="space" unicode=" " horiz-adv-x="1024" 
 />
    <glyph glyph-name="exclam" unicode="!" horiz-adv-x="1024" 
d="M309 1368q7 74 49 114t124 41t133 -38.5t54.5 -96t-4.5 -111.5q-10 -60 -33 -243t-28 -224l-41 -289q-11 -74 -18 -134t-17 -96.5t-28 -39t-31 18.5q-6 8 -8 29t-9 65t-21 146t-44 309.5t-50 321.5t-24 165.5t-4 61.5zM490 56q44 0 88 -23t69 -66t25 -91q-1 -49 -25 -91
t-66.5 -66.5t-90.5 -23.5q-49 0 -90.5 24t-65.5 66t-24.5 90.5t24.5 91.5t68 65.5t88 23.5z" />
    <glyph glyph-name="quotedbl" unicode="&#x22;" horiz-adv-x="1024" 
d="M268 879l-96 466q-10 50 -1.5 93t47.5 71.5t94 27.5q53 -2 88 -27.5t50 -62.5t3 -95l-104 -473q-8 -37 -17.5 -53.5t-24.5 -17t-23.5 16t-15.5 54.5zM645 887l-89 473q-13 66 0.5 98t55.5 53.5t88 21.5q36 -1 75.5 -18.5t56.5 -57.5t1 -109l-107 -465l-11 -51
q-15 -29 -33 -26q-15 1 -22 17.5t-15 63.5z" />
    <glyph glyph-name="numbersign" unicode="#" horiz-adv-x="1506" 
d="M105 305l243 45l-1 360l-242 -36v285l243 47l-1 336l291 55v-344l217 48v332l292 50l-2 -341l253 60l-69 -299l-182 -38l-2 -374l249 55l-65 -292l-182 -42v-330l-292 -57v337l-217 -39v-334l-291 -51v328l-243 -48zM638 406l217 39v370l-217 -44v-365z" />
    <glyph glyph-name="dollar" unicode="$" horiz-adv-x="1359" 
d="M782 997v-271q13 -2 56 -9t128 -34t146 -76.5t93.5 -122t29 -171t-54.5 -177.5t-131 -123.5t-146 -58t-108 -12.5h-13v-117l-239 -57l-1 182q-10 1 -46 6t-87 22t-117 57t-117 110.5t-65 157.5l-16 85h318q3 -30 10 -60t34.5 -58.5t71.5 -43.5l14 -5v283q-22 3 -32 6
l-32 7l-120 22q-104 22 -160 65.5t-78.5 86.5t-30.5 89.5t-3.5 139t69 169.5t144 113.5t171.5 51.5l58 8l14 2v180h240v-184q6 -1 34.5 -4.5t95 -22.5t121 -52.5t97.5 -90t53 -105.5l22 -97h-323q-3 20 -8.5 39t-29 38.5t-45.5 26.5l-17 5v0zM542 1003q-13 -2 -46.5 -8
t-65.5 -37t-31 -70q0 -47 36.5 -74t94.5 -41l12 -3v233zM782 209q5 -1 19.5 -0.5t55 14.5t57.5 40t16 64q-2 34 -16 56t-47.5 42t-65.5 27l-19 4v-247z" />
    <glyph glyph-name="percent" unicode="%" horiz-adv-x="2020" 
d="M12 -355l1694 1939h297l-1708 -1939h-283zM498 1527q106 0 207 -53.5t160 -156.5t59 -214q-1 -113 -58 -212t-155 -155.5t-213 -55.5q-115 0 -213 56t-155 155t-57.5 211t57.5 213q60 105 161 158t207 54zM502 1312q-49 0 -95.5 -25.5t-74.5 -75t-27 -101.5
q0 -53 26.5 -100.5t72 -74.5t98.5 -26q51 0 97 27t72 73t26.5 100.5t-25.5 101.5q-28 49 -76 74.5t-94 26.5zM1484 531q104 0 206.5 -54t160.5 -155.5t58.5 -214.5t-56.5 -211t-156.5 -155t-212.5 -56q-113 0 -212.5 56.5t-156.5 154.5t-56 212q0 112 58 213.5t160 155
t207 54.5zM1488 309q-49 0 -97 -26t-74 -73t-25 -102q0 -56 25 -101.5t71.5 -73t99.5 -26.5q51 0 96.5 26.5t72 73.5t27 100.5t-26.5 101.5q-28 49 -75 74t-94 26z" />
    <glyph glyph-name="ampersand" unicode="&#x26;" horiz-adv-x="1690" 
d="M457 710q-15 33 -26 63.5t-24 90.5t-19 110.5t-2 101.5q9 125 70.5 208t161 135.5t249.5 51.5q97 -2 181 -32t146 -98t67 -166.5t-17 -170.5q-26 -82 -76.5 -152.5t-112.5 -123t-117 -89.5l-84 -57q26 -46 47 -78.5t64.5 -87.5t88.5 -100l30 -31q24 34 41.5 62t55 115
t46.5 124l13 54h289q-20 -84 -39.5 -150t-69 -175.5t-80.5 -153.5l-40 -58q25 -17 54.5 -35.5t64.5 -34.5l155 -77l-203 -203q-25 8 -56 20t-88 42.5t-102 58.5l-40 24q-43 -26 -98 -54.5t-163.5 -50t-218.5 -20.5q-120 0 -202 24t-148.5 69t-112.5 124t-52.5 189t37.5 213
q35 81 106.5 153.5t143.5 115.5l80 49v0zM605 444q-26 -12 -63 -30.5t-81 -53.5t-67 -77t-21 -89q2 -53 32.5 -91.5t86 -57.5t123.5 -16q59 1 124 17.5t86 29.5l34 20q-26 34 -38 51l-103 129q-46 59 -73 104l-40 64v0zM717 842q55 29 93.5 52.5t73.5 57.5t54.5 73.5
t22.5 70.5t-5 54q-9 22 -35 43t-76 21q-38 -1 -71 -16.5t-49 -33.5t-26.5 -43.5t-12.5 -58t3 -85.5q6 -74 17.5 -104.5t10.5 -30.5z" />
    <glyph glyph-name="quotesingle" unicode="'" horiz-adv-x="1024" 
d="M448 889l-88 473q-12 65 1 97.5t54 54.5t88 22q36 -1 76 -19t56.5 -58t1.5 -108l-108 -465l-10 -52q-15 -29 -34 -26q-15 2 -22 19.5t-15 61.5z" />
    <glyph glyph-name="parenleft" unicode="(" horiz-adv-x="802" 
d="M291 1531h377q-44 -78 -66 -123t-47 -109.5t-48 -138t-38.5 -150t-21 -132.5t-11 -161.5t-4.5 -170t16 -165.5t34.5 -183.5t46 -158t61 -152t59.5 -122.5l36 -70h-385q-19 42 -35 82t-42.5 122t-51 182t-38.5 187.5t-22 191t-4.5 220t15 221.5t28 194t42 171.5
t46.5 133.5l53 131v0z" />
    <glyph glyph-name="parenright" unicode=")" horiz-adv-x="761" 
d="M480 1531q35 -87 58 -145t44.5 -128.5t38.5 -161.5t28.5 -194.5t15.5 -222.5t-6 -240q-7 -76 -22 -173.5t-36.5 -181.5t-54.5 -188.5t-47 -136.5l-28 -64h-384q25 47 40.5 78.5t55 120.5t62 152.5t43.5 151t35 183t15.5 167.5t-3.5 169t-11 159.5t-21 133t-40 152.5
t-51.5 150t-44.5 101l-63 118h376z" />
    <glyph glyph-name="asterisk" unicode="*" horiz-adv-x="1102" 
d="M504 618q-137 33 -219.5 41t-126.5 35t-47.5 81t19 96t86.5 48q36 3 72 -17.5t90 -84t65 -74.5l86 -95q-10 67 -19 96.5t-49.5 114t-39.5 141.5q0 47 18 73t45 40t67 13q29 -2 54 -13t49 -40t24.5 -66.5t-24.5 -96.5q-50 -116 -56 -147l-29 -119q86 90 127 138l67 79
q26 30 49.5 44.5t52.5 17.5q34 2 64 -15.5t48.5 -48.5t20 -69t-16.5 -64q-17 -24 -70 -46.5t-132 -34.5l-198 -33q62 -16 100 -24.5t112 -22t113 -28.5t65 -43.5t23 -89t-46 -83t-75 -20.5q-50 2 -80.5 29t-64.5 73t-41 54l-113 126q17 -107 33 -158l35 -104
q17 -55 20.5 -95t-8.5 -66t-40 -43t-61 -18q-31 -2 -63.5 12t-48.5 35t-19 58.5t8 75.5q4 16 35 85t42 117l27 111q-56 -63 -74.5 -86t-57 -73.5t-79 -88t-86 -41.5t-80.5 22t-44 77t5.5 80.5t39 47.5t83.5 30l120 22l143 35v0z" />
    <glyph glyph-name="plus" unicode="+" horiz-adv-x="1414" 
d="M613 1226h173v-528h533v-172h-533v-530h-173v530h-525v172h525v528z" />
    <glyph glyph-name="comma" unicode="," horiz-adv-x="1024" 
d="M416 -139q-26 13 -50.5 30.5t-49.5 63.5t-25 101t27 103t75 75.5t105 27.5q55 -1 103 -28t75 -74.5t27.5 -103.5t-28.5 -121l-82 -140l-55 -96l-202 -1l43 86l37 77v0z" />
    <glyph glyph-name="hyphen" unicode="-" horiz-adv-x="1408" 
d="M1317 700v-173h-1231v173h1231z" />
    <glyph glyph-name="period" unicode="." horiz-adv-x="1024" 
d="M498 265q50 0 100.5 -26.5t78.5 -75.5t28 -105q-1 -56 -28 -103.5t-75 -75t-104 -26.5q-56 0 -104 27t-75 74.5t-27 103.5t27 104q28 50 78.5 76t100.5 27z" />
    <glyph glyph-name="slash" unicode="/" horiz-adv-x="1536" 
d="M35 -406l1178 2038l280 1l-1194 -2039h-264z" />
    <glyph glyph-name="zero" unicode="0" horiz-adv-x="1024" 
d="M43 989q6 73 17 114.5t28.5 72.5t37 59t54 58t80.5 51t88.5 27t127.5 9l82 2q67 1 114 -6t84 -23t69 -39t65.5 -60t49 -70.5t23.5 -62t12.5 -66.5t4.5 -73v-537q0 -76 -4 -113.5t-20.5 -96t-39.5 -91.5t-44 -50.5t-53 -35.5t-67 -30.5t-68 -18.5t-94.5 -10t-75.5 -4
q-39 -1 -105.5 7t-96 16t-68 26.5t-67.5 42.5t-60.5 64t-47 97.5t-21 101.5t-5.5 93v546zM338 547q0 -58 6 -104.5t31 -79.5t58.5 -49.5t96.5 -16.5h12q42 0 76.5 22.5t46.5 49t17.5 92t5.5 81.5v340q0 49 -11.5 103t-27.5 71t-50 31t-80 16l-44 1q-22 0 -52.5 -14
t-43.5 -28.5t-28 -44.5t-14 -116z" />
    <glyph glyph-name="one" unicode="1" horiz-adv-x="681" 
d="M250 1094h-146v281h460l1 -1284l-313 -110z" />
    <glyph glyph-name="two" unicode="2" horiz-adv-x="1024" 
d="M330 868h-289v39v38q0 121 5 186.5t34 119t61 76.5t63.5 34t73.5 19t80 8h285q29 0 76.5 -11t77.5 -23.5t53 -32.5t40.5 -42.5t33.5 -56.5t22 -52.5t10.5 -65.5t6 -66.5t1.5 -87.5q-1 -109 -7.5 -155.5t-16.5 -76t-26 -60t-37 -56t-58.5 -42.5t-55.5 -21t-157 -20
l-141 -21q-47 -6 -66 -16t-31 -29.5t-15 -43.5l-2 -65l-1 -21q-1 -20 7 -29q4 -6 11.5 -10t14.5 -4.5t44 -0.5h541l-118 -279l-808 -1v333q0 98 6.5 132t18 79.5t35 83t50 59.5t57.5 37t77 26.5t113 19t84 11.5l31 6q66 10 83.5 15.5t31 25.5t16.5 61l3 76q6 99 -17 124
q-20 20 -37 22.5t-65 2.5h-84q-35 0 -58.5 -12t-35.5 -25.5t-17 -87.5t-4 -90v-30v0z" />
    <glyph glyph-name="three" unicode="3" horiz-adv-x="1024" 
d="M240 571v269h314q21 0 50.5 7.5t42.5 18.5t19.5 30.5t7 75t-9.5 78.5q-13 28 -34 39t-57 11h-154q-55 0 -75.5 -18t-25.5 -27t-5 -58v-65h-268q0 22 -0.5 32t-1.5 54.5t1 83.5q4 93 31.5 145.5t58 74.5t70 41t120.5 19h386q30 0 78 -13.5t90.5 -45.5t66 -93.5
t28.5 -112.5t4 -114q-2 -74 -12.5 -129.5t-28.5 -75.5l-47 -61q34 -38 50 -61.5t26 -52t17.5 -72.5t6.5 -157q-2 -69 -6.5 -104t-18 -81t-30.5 -75t-53 -62t-57.5 -42t-76.5 -19.5t-71 -10.5h-260l-91 -2q-47 1 -94.5 14t-86.5 43t-68.5 95t-32 121.5t-2.5 101.5v61h283
q-1 -44 0 -78t13 -47t26 -17t56 -4h147q51 0 80 21t34.5 76t-2.5 107q-7 40 -24 59.5t-45 19.5h-369z" />
    <glyph glyph-name="four" unicode="4" horiz-adv-x="1024" 
d="M885 1380v-860l126 -1l-84 -283h-42l1 -149l-293 -107v256h-560v362l583 782h269zM319 519h274v355z" />
    <glyph glyph-name="five" unicode="5" horiz-adv-x="1024" 
d="M63 531v846h893l-100 -280h-503v-199q-1 -10 0 -18t5 -11t16 1l34 13q23 8 61 8h219q41 0 108 -18.5t109.5 -73.5t55.5 -122t15.5 -157.5t0.5 -145.5q-3 -56 -9.5 -91.5t-23.5 -91t-39.5 -84.5t-46.5 -47.5t-53 -31t-66.5 -20t-85.5 -11.5t-211 1q-90 2 -129.5 5.5
t-76 15t-67.5 34.5t-51 50.5t-36 60.5t-26.5 81t-10.5 76l-5 133h295q-5 -41 1 -79t46.5 -66.5t115.5 -28.5q49 -1 95.5 15t62 49.5t15.5 103.5q-1 61 -10.5 93t-34 45.5t-62.5 13.5h-127q-46 0 -52 -11l-50 -58h-272z" />
    <glyph glyph-name="six" unicode="6" horiz-adv-x="1024" 
d="M976 909h-301q-2 15 -4 42t-7.5 53t-26.5 58t-59 32h-123q-62 0 -89 -38.5t-30.5 -79t-2.5 -82.5q0 -25 0.5 -39.5t6.5 -23t10.5 -9t17 10.5t46 16.5t71.5 5.5h190q49 0 80.5 -6.5t60.5 -20.5t52 -29.5t40 -36.5t33 -64.5t23.5 -78.5t13 -95.5t1.5 -141.5
q-3 -45 -8 -84.5t-11 -69t-23 -69t-39 -67t-45.5 -44t-54 -29t-65 -17t-88.5 -4.5q-85 -2 -192.5 0t-153 5t-77 16t-59.5 34t-41 36t-32 47.5t-31 76.5t-17.5 98t-5.5 126v555q0 15 8 78.5t17.5 98t26.5 66t34 54t56 48t80.5 35.5t101.5 10h315q55 0 86 -6.5t67.5 -29
t59 -48t42.5 -62t31 -83t14 -95t2 -109.5l-1 -40v0zM543 567h-86q-50 -5 -78.5 -19.5t-37.5 -36t-7 -90.5q1 -68 10.5 -90.5t36.5 -34t68 -11.5q13 -1 72 0t87.5 14t40 37t12 84t-5.5 81q-14 45 -29 46l-83 20v0z" />
    <glyph glyph-name="seven" unicode="7" horiz-adv-x="1024" 
d="M470 793l143 283h-573v299h924v-309l-310 -595l-236 -472h-367z" />
    <glyph glyph-name="eight" unicode="8" horiz-adv-x="1024" 
d="M741 1h-396q-80 0 -104 5.5t-62.5 26.5t-64.5 54.5t-38.5 75t-23.5 110t0 215.5q6 81 18.5 117t35.5 65.5t23 40.5q-1 7 -13.5 29t-25.5 56.5t-19.5 58.5t-10.5 89t0 118q1 22 4.5 53.5t11.5 69t32.5 79t52 63.5t49 31t49 14.5t50.5 5.5h377q68 0 88.5 -4.5t47.5 -18
t45.5 -28.5t38.5 -47t36 -87t19 -121.5t1 -111.5q-3 -47 -10.5 -94t-32.5 -88.5t-27 -47.5t0 -15q0 -4 20.5 -34.5t32 -59.5t17.5 -51.5t9.5 -123.5t0.5 -140q-4 -47 -14 -93.5t-22.5 -74t-47 -66t-69 -55t-78.5 -16.5zM580 574h-113q-48 0 -68 -7.5t-35 -28.5t-17 -46
t-4 -98.5t24 -102t82 -28.5h108q41 0 66.5 7.5t34.5 20.5t14 31.5t7 54.5l1 32q4 109 -22.5 137t-77.5 28zM592 850q21 4 34 10t26 24.5t16 95t-22.5 103.5t-65.5 27h-139q-53 0 -78 -32.5t-21 -101.5q1 -43 6 -65.5t17.5 -41.5t56.5 -19h170z" />
    <glyph glyph-name="nine" unicode="9" horiz-adv-x="1024" 
d="M39 468h274q-1 -31 -0.5 -71.5t17.5 -64.5t48 -33.5t72 -9.5h101q55 0 83.5 18t42 38.5t17 47.5t3.5 69v132q-33 -26 -59.5 -38t-86.5 -12h-176q-111 0 -142 5t-63.5 23t-65 55.5t-44.5 87t-17 98.5t-5 121t5 138q6 80 22.5 128t45 86t62 57.5t68 28.5t72.5 9h321
q89 0 117.5 -5.5t68 -26t66 -48t48.5 -66.5t30.5 -68t15.5 -129t7 -157v-440q0 -73 -13 -145.5t-35 -125.5t-64 -94t-92 -55t-84.5 -17.5t-64.5 -3.5h-300q-40 0 -72.5 10t-56.5 20t-33.5 16.5t-29.5 27t-30.5 33.5t-25 41t-32.5 75t-16 176l1 69v0zM609 1100h-154
q-71 0 -84 -4.5t-26 -23t-16.5 -38.5t-5.5 -63t2 -64q4 -33 25 -58.5t87 -25.5h172q42 0 63 25t22 84.5t-1 86.5q-4 34 -21.5 57.5t-62.5 23.5z" />
    <glyph glyph-name="colon" unicode=":" horiz-adv-x="1024" 
d="M483 117q48 0 95.5 -26t74.5 -74t27 -101q-1 -55 -27 -102t-71.5 -74.5t-98.5 -26.5q-53 0 -98.5 27t-71.5 74t-26 101t26 101q27 49 74 74.5t96 26.5zM483 615q48 0 95.5 -26t74 -74t27 -102t-25.5 -101q-27 -47 -72.5 -74.5t-98.5 -26.5q-53 0 -98.5 27t-71.5 74
t-26 102q0 53 26.5 101t73.5 73.5t96 26.5z" />
    <glyph glyph-name="semicolon" unicode=";" horiz-adv-x="1024" 
d="M478 619q47 -1 94 -26.5t72.5 -73.5t26 -102.5t-24.5 -99.5q-26 -46 -71.5 -73t-96.5 -27q-52 -1 -97.5 26t-71.5 73.5t-25 101.5q0 52 26.5 101t73 74.5t94.5 25.5zM402 -188q-26 11 -50 26t-48.5 55t-26 89t25.5 98q26 46 71 72.5t97 27.5q51 0 96.5 -27t71.5 -73.5
t26 -99.5q-1 -52 -30.5 -123.5t-73.5 -130.5l-24 -33l-196 -1q26 45 30 54l31 66v0z" />
    <glyph glyph-name="less" unicode="&#x3c;" horiz-adv-x="1740" 
d="M53 615l1599 813v-189l-1227 -629l1227 -633v-188z" />
    <glyph glyph-name="equal" unicode="=" horiz-adv-x="1620" 
d="M1522 1007v-172h-1430v172h1430zM1522 392v-172h-1430v172h1430z" />
    <glyph glyph-name="greater" unicode="&#x3e;" horiz-adv-x="1740" 
d="M1675 615l-1599 -826v188l1226 633l-1226 629v189z" />
    <glyph glyph-name="question" unicode="?" horiz-adv-x="1024" 
d="M521 140q-15 0 -27.5 14t-16 41.5t-21 111t-21.5 161.5t2 198q3 79 12 137.5t31 100t79.5 116t81.5 124t28 92.5t-22 83.5t-87 59t-116 5.5q-36 -9 -63.5 -29t-36 -47.5t24.5 -59.5l38 -27q26 -20 42.5 -62t-2 -109.5t-81.5 -100t-133.5 -11.5t-101 80t-30.5 133
q0 70 26 138t87 126t138.5 79t181.5 22q119 0 204.5 -25t152.5 -89.5t90.5 -150.5t-20.5 -196q-32 -80 -106 -161l-105 -112q-64 -75 -104 -164.5t-55 -171.5l-18 -125q-15 -91 -15.5 -124t-11.5 -45.5t-25 -11.5zM539 77q48 -1 94 -25t71.5 -69t26 -97t-24.5 -96
q-26 -46 -70.5 -71t-96.5 -25q-53 -1 -96.5 24.5t-69.5 71t-26.5 96t26.5 96.5q27 47 72 71t94 24z" />
    <glyph glyph-name="at" unicode="@" horiz-adv-x="1773" 
d="M1021 305q-45 -47 -88 -83.5t-107 -58.5t-134 -22q-90 -1 -140.5 24t-107.5 80.5t-53 199.5q1 68 28.5 142t56 127t69.5 106.5t94 106t107.5 83t103 41.5t91.5 12q43 0 115.5 -17t110.5 -83l23 -37l38 120l147 -42q-139 -370 -179.5 -485t-39.5 -136q0 -36 22.5 -62
t71.5 -29q39 -3 94 19t145.5 114t80.5 308q-6 104 -42.5 181t-89 148t-134.5 129.5t-204 99.5t-247 34q-62 -4 -124.5 -21t-135.5 -50.5t-142 -93t-110 -117t-73 -119t-49.5 -132t-20 -166.5t13.5 -169q17 -85 62.5 -173t116 -166t201 -140t302.5 -63q136 -2 248.5 39
t199.5 109t131 110l51 49l72 -64q-30 -36 -62.5 -72.5t-101.5 -96t-168.5 -107.5t-195 -68.5t-181.5 -20.5q-158 -1 -322.5 66.5t-274.5 202.5t-155 263.5t-48.5 241.5t21.5 227q19 87 54.5 164t84 141t106 118.5t154.5 111.5t190 77.5t172 24.5q78 3 141 -4.5t139.5 -31.5
t137.5 -58.5t126 -88t113 -108t87.5 -137t55.5 -151t17.5 -146t-22.5 -167.5q-28 -102 -71 -160t-97 -106.5t-121.5 -88t-160.5 -38.5q-96 0 -137.5 40.5t-47.5 80.5l-8 38v0zM932 405q53 64 94.5 135t61.5 139.5t8 127.5q-9 40 -37.5 74t-98.5 41q-59 5 -119 -20.5
t-109.5 -71t-103.5 -126.5t-75 -150t-23 -129.5t32 -98.5q26 -31 67 -40t80 -6q71 5 121.5 34t101.5 91z" />
    <glyph glyph-name="A" unicode="A" horiz-adv-x="1953" 
d="M724 1380h472l633 -1377h-426l-122 274h-643l-129 -274h-408zM745 535h433l-211 477z" />
    <glyph glyph-name="B" unicode="B" horiz-adv-x="1639" 
d="M105 1377h1089q71 0 125 -13t92 -65t53 -107t24 -141.5t0 -140.5q-16 -91 -47 -118l-92 -94q62 -32 95.5 -60.5t57 -82t26.5 -122.5t-5 -164q-7 -71 -26.5 -121.5t-78.5 -90.5t-103 -49t-162 -9h-1048v1378zM471 568v-269h538q60 0 89 31.5t27 99.5q-2 41 -26.5 89.5
t-89.5 48.5h-538zM471 1079v-256l511 3q49 0 79.5 42.5t28 79t-26.5 84t-80 47.5h-512z" />
    <glyph glyph-name="C" unicode="C" horiz-adv-x="1663" 
d="M1112 897q-4 42 -9.5 75.5t-31 67t-114.5 33.5h-243q-71 0 -113 -9t-62 -23.5t-36.5 -53.5t-16.5 -116v-333q0 -97 17.5 -135.5t37.5 -55.5t48 -25t121 -8h244q130 0 154 33.5t25 63.5l6 109l400 -1l-9 -272q-2 -58 -30.5 -102.5t-79 -73.5t-129.5 -50t-149 -21h-610
q-60 0 -150.5 17t-147.5 61.5t-83.5 87.5t-37 98t-10.5 98v674q0 39 8.5 88.5t36 89.5t83.5 84t126.5 64.5t139.5 20.5h648q64 0 121 -15.5t108.5 -39.5t92 -76.5t47.5 -167.5l11 -187h-413z" />
    <glyph glyph-name="D" unicode="D" horiz-adv-x="1737" 
d="M107 1377h1101q97 0 180 -35.5t123.5 -87.5t71.5 -147t31 -161v-454q0 -123 -27 -222.5t-66.5 -150t-103 -84t-203.5 -33.5h-1107v1375zM481 1063v-749h558q68 0 106 37t49 64.5t11 139.5v205q0 101 -5 153t-41.5 101t-119.5 49h-558z" />
    <glyph glyph-name="E" unicode="E" horiz-adv-x="1514" 
d="M113 1377h1265l-96 -291h-790v-268h832l-82 -262h-750v-270h886l-96 -286h-1169v1377z" />
    <glyph glyph-name="F" unicode="F" horiz-adv-x="1430" 
d="M1320 1371l-95 -300h-732v-295h776l-115 -303h-661v-385l-384 -121v1404h1211z" />
    <glyph glyph-name="G" unicode="G" horiz-adv-x="1682" 
d="M520 1377h644q103 0 180 -21t118 -61t64 -98t23 -141v-140h-394q0 41 -5 70t-29.5 54t-91.5 25h-289q-76 0 -114.5 -10t-62.5 -25t-51 -65.5t-27 -117.5v-323q0 -102 21.5 -137t63.5 -59t145 -24h314q73 0 105.5 23.5t31.5 82.5l4 119h-373v241h756v-246q0 -112 -4 -210
t-32 -169.5t-106 -108t-146 -36.5h-729q-70 0 -160.5 17.5t-147.5 78.5t-77.5 124t-29 139.5t-8.5 164.5v354q0 67 0.5 112.5t20.5 112.5t49.5 115.5t91.5 93t97 46.5l148 19v0z" />
    <glyph glyph-name="H" unicode="H" horiz-adv-x="1706" 
d="M117 1379l374 1v-529h701v529l378 -1l-1 -1280l-377 -110v552h-701v-446l-373 -109z" />
    <glyph glyph-name="I" unicode="I" horiz-adv-x="634" 
d="M121 1382l386 -2l1 -1269l-387 -113v1384z" />
    <glyph glyph-name="J" unicode="J" horiz-adv-x="1355" 
d="M816 1372l389 2v-892q0 -191 -19.5 -256.5t-57 -110t-97.5 -81t-133 -36.5h-462q-60 0 -121.5 18.5t-112 63t-77.5 113.5t-27 190v182h378v-148q0 -28 9.5 -51.5t36.5 -41t103 -17.5h65q52 0 78.5 17.5t37 52.5t10.5 99v896z" />
    <glyph glyph-name="K" unicode="K" horiz-adv-x="1778" 
d="M112 1375h380v-516h94l482 521h482l-614 -671l689 -703h-527l-512 539h-94v-466l-380 -88v1384z" />
    <glyph glyph-name="L" unicode="L" horiz-adv-x="1379" 
d="M114 1377l375 -1v-1049l767 2l-115 -327l-1027 1v1374z" />
    <glyph glyph-name="M" unicode="M" horiz-adv-x="1979" 
d="M53 1380h549l392 -883l370 885h553l-1 -1273l-352 -110v922l-411 -908h-348l-400 919v-826l-351 -111z" />
    <glyph glyph-name="N" unicode="N" horiz-adv-x="1751" 
d="M104 1377l521 -4l621 -925v925l379 1l-1 -1374h-560l-582 860l-1 -763l-377 -120v1400z" />
    <glyph glyph-name="O" unicode="O" horiz-adv-x="1767" 
d="M115 536v383q0 74 24.5 163t60.5 142t106 97t198 44h706q162 0 232.5 -49.5t106.5 -104t57.5 -134.5t21.5 -198v-359q0 -99 -13 -207t-52.5 -159.5t-80.5 -80.5t-96.5 -51.5t-172.5 -22.5h-703q-68 0 -150.5 30.5t-153.5 107t-72 171.5l-19 228v0zM721 1048
q-70 -2 -112 -13.5t-67 -39t-37.5 -70.5t-12.5 -95v-276q0 -99 14.5 -141t38.5 -60.5t61 -26.5t119 -8h288q32 0 94.5 7.5t82 24t38 68t18.5 126.5v283q0 61 -15.5 100.5t-41 66t-79 40.5t-108.5 14h-281z" />
    <glyph glyph-name="P" unicode="P" horiz-adv-x="1603" 
d="M110 1382h980q135 0 206 -42.5t102 -93.5t44.5 -113.5t16 -160t0.5 -201.5q-4 -155 -32.5 -234.5t-76.5 -120.5t-105 -54.5t-152 -12.5l-605 1v-268l-377 -96zM488 1059v-386h452q84 0 117.5 43.5t29.5 156.5q-4 95 -36 140.5t-111 45.5h-452z" />
    <glyph glyph-name="Q" unicode="Q" horiz-adv-x="1858" 
d="M1601 404l140 -99l-180 -285l-74 52q-22 -14 -51.5 -29t-94.5 -29t-156 -14h-484q-236 0 -335.5 35t-146 79t-68 94.5t-32 135t-10.5 212.5v388q0 91 30.5 170t81.5 136.5t135 86.5t189 29h554q120 0 208 -24.5t143 -61.5t109 -110.5t54 -206.5v-407q0 -95 -4 -112
l-8 -40v0zM1147 309l-380 280l217 259l274 -207v246q0 51 -35 89t-72 61.5t-92 23.5h-410q-47 0 -79 -19t-51.5 -37.5t-35 -50t-15.5 -67.5v-328q0 -91 14.5 -132.5t31 -65t55 -39t76.5 -14.5z" />
    <glyph glyph-name="R" unicode="R" horiz-adv-x="1643" 
d="M109 1382h996q153 0 232.5 -42t116.5 -120t46.5 -138t10 -167t-11.5 -177q-12 -65 -38 -102.5t-68 -60.5l-79 -46q46 -21 77.5 -40t60.5 -54.5t38 -75.5t9 -75l-2 -199l-389 -93v175q0 58 -18 97.5t-55.5 66t-85.5 27.5l-470 1l-1 -285l-369 -82v1390zM479 1063v-388h447
q88 0 116.5 14.5t46 40t21 112.5t-22.5 137q-20 37 -57.5 60.5t-106.5 23.5h-444z" />
    <glyph glyph-name="S" unicode="S" horiz-adv-x="1675" 
d="M1495 950h-388q-3 29 -7 54t-20 46t-55 34.5t-114 13.5h-247q-88 0 -116 -11.5t-52.5 -43.5t-2.5 -110q13 -51 39.5 -71.5t57 -23.5t137.5 -3h319q52 0 155 -4t170 -29.5t109.5 -85t54 -161.5t3.5 -222q-9 -123 -34 -173t-54.5 -79t-91 -54t-180.5 -25h-617
q-152 0 -228 21.5t-104.5 39t-55.5 50.5t-40.5 93t-12.5 127l1 99l383 1q-3 -51 4 -76.5t22.5 -41t34.5 -24t42 -8.5l326 -1q82 -1 124 5t73.5 37.5t21.5 125.5q-5 40 -26.5 70t-71.5 30h-515q-126 0 -171 0.5t-98.5 21t-88 63.5t-52 104t-17.5 141v194q0 63 26 134.5
t92.5 110.5t175.5 51t205 12h498q74 0 147.5 -12t112 -33.5t66.5 -56t39.5 -74t13.5 -86.5l7 -170v0z" />
    <glyph glyph-name="T" unicode="T" horiz-adv-x="1585" 
d="M1472 1378l-114 -321h-386v-977l-373 -106v1083h-484v321h1357z" />
    <glyph glyph-name="U" unicode="U" horiz-adv-x="1666" 
d="M114 1387l374 -1v-821q0 -82 3.5 -114t21 -61.5t59.5 -49t126 -19.5h199q98 0 130 14.5t57 39.5t37.5 56t12.5 126v833l378 1v-956q0 -91 -14.5 -156.5t-33.5 -101.5t-47 -65t-59 -46.5t-110.5 -41t-188.5 -23.5h-528q-85 0 -149 20.5t-103 42t-64.5 48.5t-46.5 64.5
t-37.5 99.5t-16.5 155v956z" />
    <glyph glyph-name="V" unicode="V" horiz-adv-x="1866" 
d="M1312 1377h443l-597 -1376h-450l-611 1377h448l395 -884z" />
    <glyph glyph-name="W" unicode="W" horiz-adv-x="2030" 
d="M45 1378h364l186 -739l175 739h453l192 -729l199 733h360l-343 -1384h-446l-186 782l-191 -782h-439z" />
    <glyph glyph-name="X" unicode="X" horiz-adv-x="1796" 
d="M63 3l554 709l-532 673h454l345 -426l334 426h459l-516 -673l527 -709h-480l-328 446l-352 -446h-465z" />
    <glyph glyph-name="Y" unicode="Y" horiz-adv-x="1806" 
d="M60 1380h457l385 -528l369 528h458l-646 -924v-376l-370 -106v479z" />
    <glyph glyph-name="Z" unicode="Z" horiz-adv-x="1578" 
d="M107 1380h1289l1 -361l-791 -691h846l-114 -328l-1223 -1v342l771 717l-779 1v321z" />
    <glyph glyph-name="bracketleft" unicode="[" horiz-adv-x="666" 
d="M107 -305v1835h459v-141h-155v-1565h155v-129h-459z" />
    <glyph glyph-name="backslash" unicode="\" horiz-adv-x="1266" 
d="M81 1534h277l800 -1845h-288z" />
    <glyph glyph-name="bracketright" unicode="]" horiz-adv-x="647" 
d="M544 -305h-440v130h155v1565h-155v141h440v-1836z" />
    <glyph glyph-name="asciicircum" unicode="^" horiz-adv-x="1084" 
d="M577 1542l288 -496l-29 -1l-261 221l-249 -218l-30 3z" />
    <glyph glyph-name="underscore" unicode="_" horiz-adv-x="1024" 
d="M3 -58l1017 -1v-199h-1017v200z" />
    <glyph glyph-name="grave" unicode="`" horiz-adv-x="1024" 
d="M442 886l-88 473q-12 64 1 96.5t54 54.5t88 22q36 -1 76 -19t56.5 -58t1.5 -108l-108 -465l-10 -52q-15 -29 -34 -26q-15 2 -22 19t-15 63z" />
    <glyph glyph-name="a" unicode="a" horiz-adv-x="1263" 
d="M482 695h-341l2 88q0 42 11 72.5t40 59.5t71 48t91 24t108 6l391 2q58 0 117 -17.5t101.5 -66t60.5 -123t18 -183.5l-1 -536l-348 -84v80q-32 -21 -61 -36t-74.5 -22t-129.5 -7h-137q-66 0 -123 11t-100.5 55.5t-59 88t-21 118t4.5 139.5q9 56 36 105t78 76t138 27h248
q13 0 82.5 -5t82.5 -12l36 -19q0 38 -0.5 64.5t-9 52.5t-33.5 40.5t-53.5 21.5t-57.5 7h-82q-26 0 -48 -8.5t-22 -15.5l-15 -51v0zM586 232h58q70 0 101 7t49 33.5t12 77.5q-4 30 -16.5 44.5t-38.5 21t-88 6.5h-82q-29 0 -60.5 -9.5t-47.5 -25t-18 -42.5t3 -41q6 -24 21 -38
t42.5 -24t64.5 -10z" />
    <glyph glyph-name="b" unicode="b" horiz-adv-x="1342" 
d="M460 107v-49l-349 -75v1398h349v-481q23 24 47 43.5t82.5 39.5t120.5 27q64 6 154 -2t168 -32.5t123 -83.5t55.5 -127t15 -234t-3.5 -234q-17 -137 -69.5 -191t-125 -77.5t-138 -31t-160.5 -5.5q-95 1 -157 20t-82 53l-30 42v0zM656 729q-65 -6 -105 -14t-61.5 -27.5
t-27.5 -45.5t-3 -104l1 -162q9 -55 36 -79t76.5 -28.5t90.5 -4.5h44q52 0 89 15.5t54.5 36.5t22 63.5t4.5 110.5q-1 69 -6.5 114t-37 88t-94.5 38l-83 -1v0z" />
    <glyph glyph-name="c" unicode="c" horiz-adv-x="1315" 
d="M1179 590h-344q-8 58 -25.5 83t-53 37t-67.5 14t-61 2q-53 -2 -94.5 -17.5t-59 -48t-19.5 -76t0 -139t37.5 -136t120.5 -36.5l51 2q78 3 120 20t43 58l7 60l352 -2q-9 -120 -24 -185t-52 -120t-106 -82.5t-225 -27.5h-240q-139 0 -215 24.5t-119 66.5t-63.5 91.5t-29 131
t-8.5 257.5q0 91 7 145.5t33 108.5t73.5 92.5t108 66.5t131.5 28h272q91 0 167 -12.5t132.5 -42.5t84 -70.5t42.5 -97.5t18 -102l6 -93v0z" />
    <glyph glyph-name="d" unicode="d" horiz-adv-x="1354" 
d="M870 1368h368l-1 -1268l-366 -129v77q-32 -14 -52.5 -21t-52 -14.5t-122.5 -11t-139 -1.5q-92 1 -170 21t-125.5 59.5t-71 120t-29 214t3.5 227.5q12 127 54.5 196.5t106.5 107t125 47.5t168 11q110 0 164 -8.5t85 -22.5l55 -25zM613 744q-47 -13 -79.5 -32t-50 -63
t-15.5 -134q1 -71 6 -102t22.5 -71.5t43 -56.5t88.5 -16l92 -1q38 -1 69.5 10.5t49.5 32.5t26 70t8.5 125.5t-12.5 123.5q-13 44 -35 67.5t-50.5 35.5t-80.5 12z" />
    <glyph glyph-name="e" unicode="e" horiz-adv-x="1308" 
d="M846 1020q88 -12 151 -31t105 -61t67 -95t25 -91l4 -124v-191h-722v-82q0 -40 12.5 -71.5t39.5 -48.5t100 -15q51 0 93 5.5t64 30t23 50.5l3 36h385q-15 -91 -35 -136.5t-70.5 -96.5t-115.5 -74.5t-190 -23.5h-274q-143 0 -205 17t-113 67t-67 108.5t-16 131.5v316
q0 69 16 141.5t65 128.5t128.5 82.5t203.5 26.5h323zM829 630q5 49 -2.5 82.5t-40 57.5t-77.5 29.5t-95 1.5q-56 -5 -94 -29.5t-36 -56.5l-6 -85h351z" />
    <glyph glyph-name="f" unicode="f" horiz-adv-x="1000" 
d="M100 975h140q0 53 -1 97t1 62q4 48 24 88t50.5 70.5t72.5 50t129.5 27.5t182.5 8h165l-74 -244h-89q-36 0 -54.5 -11.5t-34 -39.5t-14.5 -67l1 -40l291 -1l-100 -262l-191 -2l-1 -623l-358 -117v740h-139z" />
    <glyph glyph-name="g" unicode="g" horiz-adv-x="1356" 
d="M889 993l359 -2v-955q0 -84 -16 -170t-49.5 -128t-73 -69t-122.5 -52t-170 -25h-247q-72 0 -134 9.5t-113.5 34.5t-86.5 65t-55.5 82.5t-21.5 70.5l-10 91h348q2 -29 9.5 -49.5t36.5 -40.5t67 -20h80q81 0 123.5 39t59 81.5t16.5 95.5v81q-29 -35 -57.5 -56t-90 -29
t-109.5 -10t-81 -1q-65 0 -135 9.5t-126 36.5t-93.5 70t-59.5 119.5t-24.5 172.5t5.5 195q9 109 35 173.5t67 103.5t91 64t149 25h143q77 0 136 -8.5t87 -23.5l63 -32v52zM622 295l108 -2q45 -1 82.5 12t57 47.5t19.5 85.5v156q0 46 -14 75.5t-44.5 49t-103.5 19.5h-70
q-88 0 -126.5 -17.5t-56 -65t-18 -157t15.5 -137.5q16 -29 49 -47t101 -19z" />
    <glyph glyph-name="h" unicode="h" horiz-adv-x="1284" 
d="M116 1382h351l1 -472q13 20 38 47t107 41.5t172 11.5q78 -3 135 -15.5t105.5 -39.5t81.5 -79t48.5 -122t15.5 -219l-1 -447l-355 -101l-1 530q-1 136 -30.5 175.5t-76.5 46t-87 3.5q-41 -4 -71.5 -16.5t-56.5 -47.5t-25 -243l1 -356l-351 -94z" />
    <glyph glyph-name="i" unicode="i" horiz-adv-x="610" 
d="M128 962h359l-2 -859l-358 -136zM300 1428l102 -27l74 -74l28 -102l-28 -101q-28 -47 -75 -75t-101 -27q-54 0 -101.5 27.5t-73.5 74.5l-27 101l27 102l74 74l101 27v0z" />
    <glyph glyph-name="j" unicode="j" horiz-adv-x="633" 
d="M177 907h359v-1085l-259 -231h-262v231h162v1085zM357 1438l101 -28l75 -74l27 -101l-27 -102q-28 -47 -75.5 -74t-100.5 -27q-55 -1 -102 26.5t-74 74.5l-27 102l27 101l74 74l102 28v0z" />
    <glyph glyph-name="k" unicode="k" horiz-adv-x="1348" 
d="M103 1372h351l-1 -735h34l290 368h436l-401 -496l414 -509h-455l-294 383h-23v-313l-351 -99v1401z" />
    <glyph glyph-name="l" unicode="l" horiz-adv-x="935" 
d="M111 1378h359l-1 -1090h354l-132 -288h-580v1378z" />
    <glyph glyph-name="m" unicode="m" horiz-adv-x="1952" 
d="M106 994h345l2 -105q24 35 54 63.5t98 41t153 10.5t158 -30t97 -62l69 -88q37 65 69.5 97.5t95.5 56t157 27.5q63 2 137 -6.5t131.5 -37.5t91.5 -79.5t56.5 -117t22.5 -262.5v-415l-347 -110l1 462q0 108 -4 151.5t-22.5 79t-60.5 53.5t-94 10q-68 -12 -101 -47.5
t-45.5 -83t-12.5 -171.5v-355l-358 -95v475q0 139 -12.5 177t-55 71t-121.5 22q-48 -7 -85.5 -33.5t-55.5 -69t-17 -167.5l1 -376l-347 -89v1003z" />
    <glyph glyph-name="n" unicode="n" horiz-adv-x="1298" 
d="M1175 77l-359 -91l2 494q0 84 -14 134.5t-52 77.5t-109 26q-70 -2 -108.5 -27.5t-58.5 -66.5t-19 -151l2 -388l-351 -100l1 1009l350 -1v-98q27 31 47 47t57.5 33t86.5 23t148 3q104 -5 162 -19.5t104 -50.5t69 -80.5t31.5 -100t9.5 -259.5z" />
    <glyph glyph-name="o" unicode="o" horiz-adv-x="1333" 
d="M1207 668v-286q0 -57 -8 -111.5t-25 -107t-45.5 -83t-72.5 -47.5t-98.5 -27.5t-118.5 -10.5h-374q-55 0 -103 9.5t-94 28.5t-71 46.5t-44 68t-31.5 101.5t-12.5 130v289q0 61 11.5 114.5t31 86t49 58.5t73.5 43t98 26.5t99 9.5h370q60 0 116 -12t98.5 -30.5t70 -47.5
t43 -61t27 -84t11.5 -103zM687 730h-53q-41 0 -70 -7.5t-53 -25.5t-38.5 -50.5t-14.5 -71.5v-151q0 -38 11.5 -73t32.5 -53.5t54.5 -27.5t78.5 -9h50q44 0 74.5 15.5t46 34.5t24 49.5t8.5 61.5v153q0 43 -15.5 74.5t-35.5 48.5t-43 24.5t-57 7.5z" />
    <glyph glyph-name="p" unicode="p" horiz-adv-x="1360" 
d="M453 -335l-343 -83l-1 1419h343l1 -56q31 23 62 40.5t89 22t144 7t119 1.5q98 -4 169.5 -31.5t108.5 -68t52 -91.5t23 -140t8.5 -130t-4.5 -159q-6 -127 -21 -171.5t-40 -81.5t-67.5 -70t-141 -51t-139.5 -20q-58 -4 -128 3t-122 24t-75 35l-37 26v-425zM683 277
q61 1 87 14.5t44.5 42.5t24 63.5t6.5 100t-3 101.5q-5 35 -16.5 65t-34 49.5t-46 26t-57.5 8t-77 0.5q-43 -2 -77 -10.5t-57 -39.5t-23 -86v-118q0 -97 8.5 -125.5t22.5 -44.5t43.5 -30.5t68.5 -16.5t86 0z" />
    <glyph glyph-name="q" unicode="q" horiz-adv-x="1360" 
d="M855 971l2 32h377l1 -1303l-380 -118l-1 482q-36 -28 -62.5 -41t-102 -22.5t-167.5 -6.5q-72 2 -137.5 11.5t-114.5 29.5t-73 45.5t-46 70t-33.5 98.5t-13.5 137.5t-1 211.5q1 94 9 147t29 98.5t55 78t77 55t101.5 29.5t117.5 8h76l131 2q80 -3 108 -19l48 -26v0z
M652 275h37q24 0 56.5 6.5t52.5 20t38 47.5t18 85v152q0 53 -18 91t-44 53.5t-54.5 17.5t-80.5 4l-42 1q-38 0 -63 -5t-43.5 -22.5t-28 -43.5t-9.5 -58v-151q0 -78 11 -109.5t25.5 -48.5t38.5 -28.5t106 -11.5z" />
    <glyph glyph-name="r" unicode="r" horiz-adv-x="1140" 
d="M110 999h346l-1 -67q33 26 68.5 46.5t88.5 26t98.5 4t91 -11t89 -33.5t76.5 -77.5t40.5 -112.5t9.5 -148l1 -66h-349q-4 46 -10 78t-23 53t-43.5 27t-45.5 3q-44 -9 -67.5 -45.5t-23.5 -101.5l-1 -486l-345 -101v1012z" />
    <glyph glyph-name="s" unicode="s" horiz-adv-x="1328" 
d="M112 316h385q6 -33 16 -50.5t27.5 -26t66.5 -13.5t57 -5h10q70 0 102 14t42.5 35t1.5 62q-7 26 -18.5 37.5t-43 15t-78.5 3.5h-113h-105l-109 10q-61 5 -99.5 17t-72 55t-48 85.5t-17.5 75.5t0 89q3 75 18.5 126.5t58 89.5t105 55.5t195.5 17.5h322q80 0 124.5 -4.5
t89.5 -22t86 -63.5t42 -98l7 -101h-372q-10 32 -21 44.5t-29.5 20t-74.5 7.5h-45q-51 0 -81.5 -10t-42 -25.5t-9.5 -43.5q1 -26 14 -44.5t37 -27t101 -8.5h152q45 0 105.5 -3.5t103.5 -8.5t83.5 -26t68.5 -58t38 -68.5t11.5 -97t-1.5 -110.5q-7 -84 -36 -132t-94.5 -78.5
t-150.5 -43t-169 -12.5h-213q-73 0 -173.5 7t-152 44t-73 91t-22.5 87l-6 92v0z" />
    <glyph glyph-name="t" unicode="t" horiz-adv-x="1182" 
d="M118 1006h120v224h348v-224h466l-87 -247l-380 -1v-342q0 -82 4 -108t24.5 -49t65.5 -11q23 5 43.5 30t19.5 49l1 83h320q-3 -52 -6 -106.5t-16 -109t-43 -93.5t-71 -62.5t-94.5 -31.5t-163.5 -8q-148 -1 -225.5 12.5t-120 51.5t-62 89.5t-21.5 83.5t-2 200v322h-120v248
z" />
    <glyph glyph-name="u" unicode="u" horiz-adv-x="1334" 
d="M479 995v-524q0 -54 9.5 -90.5t21 -52t40.5 -34t67 -21.5q20 -3 58.5 1.5t78.5 15t63 37.5t23 148v528h363l1 -887l-366 -111l2 72q-23 -19 -45.5 -33t-68.5 -28.5t-109 -16.5q-41 -3 -127.5 1t-152 25.5t-110 66t-67 103t-29.5 121t-7 235.5v444h355z" />
    <glyph glyph-name="v" unicode="v" horiz-adv-x="1408" 
d="M923 1009l391 -1l-376 -1010h-461l-384 1010l413 1l211 -589z" />
    <glyph glyph-name="w" unicode="w" horiz-adv-x="1945" 
d="M963 481l-144 -489h-424l-294 1003l337 -1l170 -585l182 585h365l174 -585l162 585l361 1l-298 -1003h-436z" />
    <glyph glyph-name="x" unicode="x" horiz-adv-x="1346" 
d="M99 1004h417l140 -231l137 229l415 1l-328 -508l341 -493h-447l-121 202l-126 -206l-389 -2l286 470z" />
    <glyph glyph-name="y" unicode="y" horiz-adv-x="1358" 
d="M867 1003h393l-373 -1019q-78 -212 -106 -265.5t-61.5 -79.5t-67 -37t-100.5 -11h-192v249q25 -1 46.5 -0.5t38.5 8.5t38 47t37 85l17 47h-98l-374 976h377l222 -585z" />
    <glyph glyph-name="z" unicode="z" horiz-adv-x="1154" 
d="M112 998h899v-294l-474 -457h511l-88 -251h-857v313l458 422h-449v267z" />
    <glyph glyph-name="braceleft" unicode="{" horiz-adv-x="824" 
d="M317 909q7 108 9.5 209t7 146.5t30 94t89 91t113 59t88 23t41 -4t0.5 -17.5q-4 -10 -22 -25.5t-42.5 -41.5t-43 -63.5t-22.5 -109.5t-6 -184t-10.5 -186t-33 -124t-62 -90.5t-67.5 -55.5l-24 -13q16 -11 41.5 -28t64 -56t58.5 -99.5t25.5 -206t7 -202t5 -89t14 -71.5
t29 -64.5t44.5 -47.5t33 -31t7.5 -16t-8 -16t-39.5 -2q-40 7 -77.5 23.5t-82 40t-84 55.5t-51.5 65t-15.5 83t-4 171.5t-10.5 199.5t-37.5 126t-64 78.5t-66.5 44t-37 18.5t-11 14.5t12 25.5q6 5 36.5 17t56.5 31t48 49t35 67.5t26 111.5z" />
    <glyph glyph-name="bar" unicode="|" horiz-adv-x="1024" 
d="M383 -406v2040h199v-2040h-199z" />
    <glyph glyph-name="braceright" unicode="}" horiz-adv-x="814" 
d="M448 617q-16 8 -37.5 21t-56.5 50t-59.5 87t-33.5 126.5t-11.5 191t-6 182t-22 105t-43.5 64.5t-43 41.5t-19.5 23t1.5 19t46 3.5q31 -6 80.5 -22.5t113.5 -59t89.5 -91t31 -103.5t6 -167.5t9 -177.5t24 -107.5t37 -72.5t47.5 -49t56.5 -31t42.5 -23t6 -24q-3 -5 -10 -10
t-37 -18.5t-66.5 -44t-63.5 -78t-38.5 -130.5t-11 -206t-2.5 -165q-4 -44 -17 -78.5t-50.5 -65.5t-85 -56t-82.5 -40.5t-71 -22t-44 2t-8.5 15.5t6.5 16q6 8 32 28.5t46 49t29.5 65.5t12.5 69.5t6 99.5l9 225q4 116 23.5 175t59 99t72.5 61.5t33 22.5z" />
    <glyph glyph-name="asciitilde" unicode="~" horiz-adv-x="1024" 
d="M266 1216q7 14 24 41.5t31.5 46.5t29 34t29.5 23.5t31 8.5q15 -1 26.5 -8.5t60.5 -43.5t80.5 -51t53.5 -13q32 1 57.5 25t45 50t27.5 34t12.5 8.5t10.5 -4.5t0 -26q-6 -18 -12.5 -33t-21 -40.5t-32 -51t-47 -57t-54.5 -34.5q-16 -3 -32.5 3.5t-59.5 39t-74 52.5t-52 21
q-20 0 -38.5 -9.5t-29.5 -20t-33 -34t-30 -38.5t-14.5 -17t-15 10.5t7.5 45.5l19 38v0z" />
    <glyph glyph-name="currency" unicode="&#xa4;" 
d="M213 -7l264 224q-15 22 -45 69.5t-59 130.5t-27.5 181t26 181t70.5 160l22 38l-264 252l180 203l282 -252q25 14 63 33.5t119 39t215 18.5t233 -56l91 -48l263 268l201 -188l-252 -277q26 -47 46.5 -93t32 -122.5t12.5 -165.5t-22 -165.5t-66 -145.5l-31 -51l275 -242
l-176 -192l-297 245q-39 -19 -80.5 -36t-117 -31t-152 -11.5t-151 17.5t-110.5 32l-72 33l-300 -252zM1022 261q152 2 249 98t100.5 239.5t-92 260t-252 117t-259.5 -111.5t-99.5 -266.5t108 -246.5t245.5 -90z" />
    <glyph glyph-name="section" unicode="&#xa7;" 
d="M616 103h188q1 -42 5 -89.5t32 -89t77 -57.5t105 -14q65 1 120.5 31t60 83t-34.5 105q-43 56 -166 123t-186 107.5t-108.5 84.5t-74.5 108.5t-30.5 121.5t8.5 102q17 72 59 129.5t92 94.5l36 27q-35 27 -62.5 51.5t-69.5 82.5t-47.5 147.5t73.5 170.5q44 46 121.5 73
t183.5 26q140 -3 230 -57t120.5 -123.5t31.5 -120.5l2 -71h-182q-1 26 -4 62t-27 71t-66.5 51.5t-83.5 20.5q-61 5 -114 -9t-75.5 -40t-25 -63.5t62.5 -102.5q58 -60 130 -111t180 -117t154.5 -106.5t78 -91t37.5 -125.5t-54 -162q-53 -76 -111 -104l-91 -48
q43 -31 92.5 -71.5t78 -106t28.5 -119.5q-2 -105 -69.5 -175t-152 -95.5t-175.5 -24.5q-72 0 -144 18.5t-122 65.5t-75.5 109.5t-29.5 142.5l-6 85v0zM1019 382q42 16 94.5 37t102 63t50 86.5t-22.5 79.5q-25 36 -125 95l-117 74l-74 45q-26 -19 -51 -38.5t-60.5 -70
t-33.5 -104.5t15.5 -86.5t58 -72t100.5 -71.5l63 -37v0z" />
    <glyph glyph-name="dieresis" unicode="&#xa8;" 
d="M548 1250q34 2 76 -17t65.5 -54.5t23.5 -81.5q-1 -67 -45 -112.5t-109.5 -46t-111 45.5t-45.5 112.5t44.5 107.5t101.5 46zM1463 1247q34 2 76 -17.5t65.5 -55t23 -92t-45 -102t-109.5 -45t-111.5 46t-45.5 110.5q0 67 45.5 108.5t101.5 46.5z" />
    <glyph glyph-name="degree" unicode="&#xb0;" 
d="M492 1429q102 -1 185 -76.5t83.5 -194t-78.5 -196t-192 -77t-191 76t-78 198.5t86.5 196t184.5 73zM490 998q64 -1 111 43t46.5 113t-45 114t-111.5 43.5t-114.5 -49t-42.5 -116.5q4 -68 53.5 -108t102.5 -40z" />
    <glyph glyph-name="plusminus" unicode="&#xb1;" 
d="M409 -106v171h1231v-171h-1231zM933 1395h173v-480h533v-173h-533v-477h-173v477h-523v173h523v480z" />
    <glyph glyph-name="periodcentered" unicode="&#xb7;" 
d="M1027 410q-102 -2 -159 59.5t-57 150.5q0 86 58 151t150.5 65.5t156.5 -63.5t64.5 -153.5t-64.5 -149t-149 -60.5z" />
    <glyph glyph-name="multiply" unicode="&#xd7;" 
d="M899 617l-492 492l121 123l493 -493l487 487l125 -114l-490 -495l491 -496l-121 -121l-492 495l-495 -496l-118 124z" />
    <glyph glyph-name="agrave" unicode="&#xe0;" 
d="M1194 150q-20 -22 -52.5 -50.5t-129.5 -32.5q-106 -6 -178 35.5t-110 97.5t-55.5 130.5t-19.5 167.5t9 153q15 81 54 147t85.5 106t116.5 64.5t145 12.5q60 -10 89 -32l47 -33v60h172v-912h-173v86zM1192 686q-11 21 -25 44.5t-52.5 48t-91.5 28.5q-45 2 -87 -15
t-72.5 -61.5t-42 -97.5t-10.5 -116q0 -70 13 -128t39 -91t60.5 -48t82.5 -13q45 1 74 17t56.5 57t38.5 81l17 61v233zM1003 1456l175 -327l-57 -38l-244 280z" />
    <glyph glyph-name="aacute" unicode="&#xe1;" 
d="M1194 150q-20 -22 -52.5 -50.5t-129.5 -32.5q-106 -6 -178 35.5t-110 97.5t-55.5 130.5t-19.5 167.5t9 153q15 81 54 147t85.5 106t116.5 64.5t145 12.5q60 -10 89 -32l47 -33v60h172v-912h-173v86zM1192 686q-11 21 -25 44.5t-52.5 48t-91.5 28.5q-45 2 -87 -15
t-72.5 -61.5t-42 -97.5t-10.5 -116q0 -70 13 -128t39 -91t60.5 -48t82.5 -13q45 1 74 17t56.5 57t38.5 81l17 61v233zM1003 1091l-126 84l244 281l57 -37z" />
    <glyph glyph-name="egrave" unicode="&#xe8;" 
d="M1390 480l-595 2q-3 -58 5 -99.5t46 -84.5t87.5 -60t117.5 -18t110 31t49 90l5 36l168 -1q-4 -43 -10.5 -94t-34.5 -95t-66 -70t-108 -44.5t-180 -7.5q-117 11 -177.5 48t-100 89.5t-58.5 121.5t-22.5 153.5t13.5 175.5q21 109 74.5 185.5t134 112.5t170.5 37
q118 1 194 -42.5t110.5 -93.5t50 -105.5t16.5 -150.5l1 -116v0zM807 643h411q-2 27 -5 50t-17 50t-49.5 53t-100 29.5t-111.5 -9.5t-82.5 -58.5t-41.5 -89.5l-4 -25v0zM1003 1456l175 -327l-57 -38l-243 280z" />
    <glyph glyph-name="eacute" unicode="&#xe9;" 
d="M1382 477l-595 1q-2 -57 5.5 -99t45 -84.5t87.5 -59.5t118 -18t110 31t49 90l5 36l168 -1q-4 -44 -10.5 -94t-34.5 -95.5t-65.5 -70.5t-109 -43.5t-179.5 -7.5q-116 11 -177 48t-100.5 88.5t-58.5 121t-22.5 154.5t13.5 176q21 108 74.5 185t134 113t170.5 37
q119 1 194.5 -42.5t110 -93.5t50 -105.5t16.5 -151.5l1 -115v0zM799 639l411 1q-2 26 -5 49.5t-17 50.5t-50 53.5t-99.5 29.5t-111 -11t-83.5 -59t-41 -88l-4 -26v0zM1005 1091l-125 84l243 281l56 -37z" />
    <glyph glyph-name="ecircumflex" unicode="&#xea;" 
d="M1387 477l-595 1q-2 -57 5.5 -99t45 -84.5t87.5 -59.5t118 -18t110 31t49 90l5 36l168 -1q-4 -44 -10.5 -94t-34.5 -95.5t-65.5 -70.5t-109 -43.5t-179.5 -7.5q-116 11 -177 48t-100.5 88.5t-58.5 121t-22.5 154.5t13.5 176q21 108 74.5 185t134 113t170.5 37
q119 1 194.5 -42.5t110 -93.5t50 -105.5t16.5 -151.5l1 -115v0zM804 639l411 1q-2 26 -5 49.5t-17 50.5t-50 53.5t-99.5 29.5t-111 -11t-83.5 -59t-41 -88l-4 -26v0zM1023 1267l-177 -152l-74 77l249 213l260 -216l-69 -77z" />
    <glyph glyph-name="igrave" unicode="&#xec;" 
d="M931 983h181l1 -919l-183 -1zM1003 1456l175 -327l-57 -38l-243 280z" />
    <glyph glyph-name="iacute" unicode="&#xed;" 
d="M955 983h182v-919l-183 -1zM1031 1091l-125 84l243 281l57 -37z" />
    <glyph glyph-name="ograve" unicode="&#xf2;" 
d="M634 697q15 60 63 138t125 116.5t170 42.5q95 3 183.5 -30.5t144 -97t77.5 -151t22 -204.5q-1 -117 -25.5 -206.5t-79.5 -141.5t-131 -81.5t-167 -28.5q-124 1 -206 51t-119 108.5t-56.5 140.5t-17.5 184.5t17 159.5zM785 512q2 -72 17 -120t43.5 -85t85 -61.5
t115.5 -19.5q50 4 93.5 29.5t65.5 61t29.5 81.5t9 136t-13.5 140q-23 72 -71 109.5t-102 46.5q-74 11 -129.5 -17.5t-88.5 -76.5t-44.5 -104.5t-9.5 -119.5zM1003 1456l175 -327l-57 -38l-243 280z" />
    <glyph glyph-name="oacute" unicode="&#xf3;" 
d="M639 697q15 60 63 138t125 116.5t170 42.5q95 3 183.5 -30.5t144 -97t77.5 -151t22 -204.5q-1 -117 -25.5 -206.5t-79.5 -141.5t-131 -81.5t-167 -28.5q-124 1 -206 51t-119 108.5t-56.5 140.5t-17.5 184.5t17 159.5zM790 512q2 -72 17 -120t43.5 -85t85 -61.5
t115.5 -19.5q50 4 93.5 29.5t65.5 61t29.5 81.5t9 136t-13.5 140q-23 72 -71 109.5t-102 46.5q-74 11 -129.5 -17.5t-88.5 -76.5t-44.5 -104.5t-9.5 -119.5zM1004 1091l-125 84l243 281l58 -37z" />
    <glyph glyph-name="divide" unicode="&#xf7;" 
d="M1020 1227q64 -1 107 -43.5t43 -104.5q-1 -63 -42.5 -105t-105 -43.5t-107 39t-44 109t44 108.5t104.5 40zM407 527v173h1231v-173h-1231zM1020 298q65 -1 107.5 -43.5t42.5 -104.5q-1 -63 -42.5 -104.5t-105 -43t-107 39t-44 109t43.5 108t105 39.5z" />
    <glyph glyph-name="ugrave" unicode="&#xf9;" 
d="M664 983h180l1 -559q0 -72 14.5 -102t55 -53t109.5 -21q52 0 104 17.5t65 43.5l13 24l1 650h181v-916l-182 -1v44q-18 -9 -34.5 -16.5t-57 -17.5t-114.5 -7q-90 3 -160 30t-110.5 77t-53.5 110t-13 124zM1004 1456l175 -327l-57 -38l-243 280z" />
    <glyph glyph-name="uacute" unicode="&#xfa;" 
d="M652 983h180l1 -559q0 -72 14.5 -102t55 -53t109.5 -21q52 0 104 17.5t65 43.5l13 24l1 650h181v-916l-182 -1v44q-18 -9 -34.5 -16.5t-57 -17.5t-114.5 -7q-90 3 -160 30t-110.5 77t-53.5 110t-13 124zM1005 1091l-126 84l244 281l57 -37z" />
    <glyph glyph-name="udieresis" unicode="&#xfc;" 
d="M654 983h180l1 -560q0 -71 14.5 -101t55 -53t109.5 -21q52 0 104 17.5t65 43.5l13 23l1 651h181v-916l-182 -1v43q-18 -9 -34.5 -16.5t-57 -17.5t-114.5 -7q-91 3 -160.5 30t-110 77.5t-53.5 109.5t-13 125zM821 1368q23 0 49 -13.5t39 -36t13 -50.5q-1 -29 -13 -51.5
t-36.5 -36t-51.5 -12.5q-27 0 -51 13t-37 36t-13.5 50.5t13.5 50.5q13 23 39 36t49 14zM1216 1368q25 0 49.5 -13.5t38 -37t13.5 -49.5q-1 -27 -14 -50.5t-36 -37t-51 -12.5q-28 0 -51.5 13t-36.5 36t-13.5 50.5t13.5 50.5q13 23 38.5 36t49.5 14z" />
    <glyph glyph-name="amacron" unicode="&#x101;" 
d="M1195 150q-20 -21 -53 -49.5t-129 -33.5q-105 -6 -177.5 35.5t-110.5 97.5t-55.5 130.5t-19.5 167.5t9 153q15 81 53.5 147t86 107t115.5 64.5t146 11.5q62 -10 89 -31l47 -34v61h172v-913h-173v86zM1193 686q-10 21 -24.5 44.5t-52.5 48t-92 28.5q-46 3 -87.5 -14
t-72 -62t-42 -97.5t-10.5 -116.5q0 -71 13 -128t39.5 -90t60 -48t82.5 -13q46 1 74.5 16t56.5 56.5t38 81.5l17 61v233zM774 1244v103h527v-103h-527z" />
    <glyph glyph-name="emacron" unicode="&#x113;" 
d="M1392 480l-595 2q-3 -58 5 -99.5t46 -84.5t87.5 -60t117.5 -18t110 31t49 90l5 36l168 -1q-4 -43 -10.5 -94t-34.5 -95t-66 -70t-108 -44.5t-180 -7.5q-117 11 -177.5 48t-100 89.5t-58.5 121.5t-22.5 153.5t13.5 175.5q21 109 74.5 185.5t134 112.5t170.5 37
q118 1 194 -42.5t110.5 -93.5t50 -105.5t16.5 -150.5l1 -116v0zM809 643h411q-2 27 -5 50t-17 50t-49.5 53t-100 29.5t-111.5 -9.5t-82.5 -58.5t-41.5 -89.5l-4 -25v0zM775 1244l-1 103h528v-103h-527z" />
    <glyph glyph-name="ecaron" unicode="&#x11b;" 
d="M1387 477l-595 1q-2 -57 5.5 -99t45 -84.5t87.5 -59.5t118 -18t110 31t49 90l5 36l168 -1q-4 -44 -10.5 -94t-34.5 -95.5t-65.5 -70.5t-109 -43.5t-179.5 -7.5q-116 11 -177 48t-100.5 88.5t-58.5 121t-22.5 154.5t13.5 176q21 108 74.5 185t134 113t170.5 37
q119 1 194.5 -42.5t110 -93.5t50 -105.5t16.5 -151.5l1 -115v0zM804 639l411 1q-2 26 -5 49.5t-17 50.5t-50 53.5t-99.5 29.5t-111 -11t-83.5 -59t-41 -88l-4 -26v0zM1023 1270l250 162l64 -90l-316 -210l-308 206l70 94z" />
    <glyph glyph-name="imacron" unicode="&#x12b;" 
d="M933 983h181l1 -919l-183 -1zM766 1244l-1 103h527v-103h-526z" />
    <glyph glyph-name="omacron" unicode="&#x14d;" 
d="M642 703q15 63 62.5 140t125 115.5t170.5 42.5q97 3 184.5 -30t143 -97.5t77.5 -151t22 -204.5q-1 -118 -25.5 -206.5t-80 -141.5t-130.5 -82.5t-167 -28.5q-124 1 -206 51t-119 109t-56.5 140t-17 184t16.5 160zM793 520q2 -71 17 -120t43.5 -86.5t84.5 -62t116 -19.5
q50 4 93.5 29.5t65.5 62t29.5 82.5t9 135t-13.5 140q-23 74 -70.5 110t-102.5 45q-76 11 -130.5 -17t-87.5 -76t-44.5 -105t-9.5 -118zM774 1244v103h527l1 -103h-528z" />
    <glyph glyph-name="umacron" unicode="&#x16b;" 
d="M659 983h180l1 -559q0 -72 14.5 -102t55 -53t109.5 -21q52 0 104 17.5t65 43.5l13 24l1 650h181v-916l-182 -1v44q-18 -9 -34.5 -16.5t-57 -17.5t-114.5 -7q-90 3 -160 30t-110.5 77t-53.5 110t-13 124zM771 1244v103h527v-103h-527z" />
    <glyph glyph-name="uni01CE" unicode="&#x1ce;" 
d="M1024 1270l250 162l64 -90l-316 -210l-309 206l71 94zM1195 150q-20 -22 -52.5 -50.5t-129.5 -32.5q-106 -6 -178 35.5t-110 97.5t-55.5 130.5t-19.5 167.5t9 153q15 81 54 147t85.5 106t116.5 64.5t145 12.5q60 -10 89 -32l47 -33v60h172v-912h-173v86zM1193 686
q-11 21 -25 44.5t-52.5 48t-91.5 28.5q-45 2 -87 -15t-72.5 -61.5t-42 -97.5t-10.5 -116q0 -70 13 -128t39.5 -91t61 -48t81.5 -13q45 1 74 17t56.5 57t38.5 81l17 61v233z" />
    <glyph glyph-name="uni01D0" unicode="&#x1d0;" 
d="M928 983h181v-919l-183 -1zM1023 1270l250 162l64 -90l-316 -210l-308 206l70 94z" />
    <glyph glyph-name="uni01D2" unicode="&#x1d2;" 
d="M628 697q15 60 63 138t125 116.5t170 42.5q95 3 183.5 -30.5t144 -97t77.5 -151t22 -204.5q-1 -117 -25.5 -206.5t-79.5 -141.5t-131 -81.5t-167 -28.5q-124 1 -206 51t-119 108.5t-56.5 140.5t-17.5 184.5t17 159.5zM779 512q2 -72 17 -120t43.5 -85t85 -61.5
t115.5 -19.5q50 4 93.5 29.5t65.5 61t29.5 81.5t9 136t-13.5 140q-23 72 -71 109.5t-102 46.5q-74 11 -129.5 -17.5t-88.5 -76.5t-44.5 -104.5t-9.5 -119.5zM1024 1270l249 162l65 -90l-317 -210l-308 206l70 94z" />
    <glyph glyph-name="uni01D4" unicode="&#x1d4;" 
d="M651 980h180l1 -560q0 -70 14.5 -101t55 -54t109.5 -21q50 1 103.5 18.5t65.5 42.5l13 24l1 651h181v-916l-182 -2v44q-18 -10 -33.5 -17t-58 -16.5t-114.5 -7.5q-91 2 -160 29t-110 78.5t-54 110t-13 124.5zM1024 1270l250 162l64 -90l-316 -210l-309 206l71 94z" />
    <glyph glyph-name="uni01D6" unicode="&#x1d6;" 
d="M825 1260q23 0 49 -13.5t39 -36.5t13 -51q-1 -29 -13 -51.5t-36.5 -36t-51.5 -12.5q-27 0 -51 13t-37 36t-13.5 50.5t13.5 50.5q13 24 38.5 37t49.5 14zM658 982h180l1 -559q0 -72 14.5 -102t54.5 -52.5t110 -21.5q54 0 105 17t64 44l13 24l1 650h181v-916l-182 -1v44
q-18 -10 -34 -17.5t-56.5 -17t-115.5 -6.5q-93 3 -161 29t-109 77t-54 110t-13 125zM1213 1260q24 0 48.5 -13.5t39 -38t14.5 -49.5q-1 -27 -15 -50.5t-36.5 -37t-50.5 -12.5q-28 0 -51.5 13t-36.5 36.5t-13.5 50t13.5 50.5q13 24 38 37t50 14zM771 1362l-1 103h527v-103
h-526z" />
    <glyph glyph-name="uni01D8" unicode="&#x1d8;" 
d="M824 1260q25 0 50 -13t37.5 -36t13 -51.5t-11.5 -49.5q-13 -23 -38 -37.5t-51 -13.5q-26 0 -50.5 14t-38 36.5t-12.5 50.5q0 27 13.5 50.5t38 36t49.5 13.5zM657 983h180l1 -560q0 -70 14.5 -101t54.5 -54t110 -21q52 1 104 18t65 43l13 24l1 651h181v-916l-182 -2v44
q-18 -10 -33.5 -17t-58 -16.5t-114.5 -7.5q-91 2 -160 29t-110 78.5t-54 109.5t-13 125zM1219 1260q26 0 49.5 -12.5t37 -37t14 -51.5t-12.5 -49q-14 -24 -38 -37.5t-50 -13.5q-27 0 -51 13.5t-37.5 36.5t-12.5 51q0 26 13.5 50.5t37 37t50.5 12.5zM1010 1280l-115 85
l230 233l46 -29z" />
    <glyph glyph-name="uni01DA" unicode="&#x1da;" 
d="M1018 1446l237 131l67 -91l-300 -165l-311 165l65 91zM826 1260q25 0 50 -13t37.5 -36t13 -51.5t-11.5 -49.5q-13 -23 -38 -37.5t-51 -13.5q-26 0 -50.5 14t-38 36.5t-12.5 50.5q0 27 13.5 50.5t38 36t49.5 13.5zM659 983h180l1 -560q0 -70 14.5 -101t54.5 -54t110 -21
q52 1 104 18t65 43l13 24l1 651h181v-916l-182 -2v44q-18 -10 -33.5 -17t-58 -16.5t-114.5 -7.5q-91 2 -160 29t-110 78.5t-54 109.5t-13 125zM1218 1260q26 -1 49.5 -13t37 -36.5t14 -51.5t-12.5 -49q-14 -24 -37.5 -37.5t-50.5 -13.5q-29 -1 -52 13t-37 38t-13 50
q0 25 14 50t37 37.5t51 12.5z" />
    <glyph glyph-name="uni01DC" unicode="&#x1dc;" 
d="M824 1260q25 0 50 -13t37.5 -36t13 -51.5t-11.5 -49.5q-13 -23 -38 -37.5t-51 -13.5q-26 0 -50.5 14t-38 36.5t-12.5 50.5q0 27 13.5 50.5t38 36t49.5 13.5zM657 983h180l1 -560q0 -70 14.5 -101t54.5 -54t110 -21q52 1 104 18t65 43l13 24l1 651h181v-916l-182 -2v44
q-18 -10 -33.5 -17t-58 -16.5t-114.5 -7.5q-91 2 -160 29t-110 78.5t-54 109.5t-13 125zM1219 1260q26 0 49.5 -12.5t37 -37t14 -51.5t-12.5 -49q-14 -24 -38 -37.5t-50 -13.5q-27 0 -51 13.5t-37.5 36.5t-12.5 51q0 26 13.5 50.5t37 37t50.5 12.5zM999 1611l162 -288
l-46 -29l-231 232z" />
    <glyph glyph-name="caron" unicode="&#x2c7;" 
d="M617 1395h183l223 -429l203 429h180l-290 -611h-189z" />
    <glyph glyph-name="uni02C9" unicode="&#x2c9;" 
d="M716 987v173l613 -1v-172h-613z" />
    <glyph glyph-name="Alpha" unicode="&#x391;" 
d="M1026 1316l406 -1016q42 -107 62.5 -146.5t55 -70t67.5 -38.5l49 -13q30 -9 25 -27t-25 -18h-460q-21 0 -25 18.5t20 21.5l46 5q36 3 62.5 17t32.5 41.5t-12 76.5l-94 245h-501l-87 -218q-10 -25 -17 -59.5t-4 -48.5q4 -30 17 -39t59 -17l48 -9q24 -5 21.5 -24t-21.5 -19
h-389q-28 0 -22.5 17t22.5 23l29 9l35 10q31 11 61 40.5t46.5 60t44.5 97.5zM758 466h453l-222 584z" />
    <glyph glyph-name="Beta" unicode="&#x392;" 
d="M1176 637q65 -17 113.5 -32.5t101.5 -48.5t86.5 -93t31.5 -147q-4 -112 -55 -179.5t-122.5 -102t-162 -44t-203.5 -9.5h-445q-36 0 -34 18t24 21l38 5q48 6 78.5 20t46.5 38t16 106v859q0 43 -8 72.5t-28.5 52t-70.5 30.5l-81 12q-21 2 -21.5 20.5t21.5 18.5h468
q79 0 142 -8.5t140 -38t134.5 -93.5t59.5 -171.5t-38 -170.5q-53 -82 -117 -98l-115 -37v0zM966 1191h-81q-25 0 -38.5 -11.5t-13.5 -26.5v-439q0 -26 8.5 -33t32.5 -7h117q58 0 109.5 16t97 45t74.5 75.5t29.5 129t-32.5 134.5q-31 46 -89 74.5t-103 35.5t-111 7zM1015 605
h-136q-29 0 -37.5 -10t-8.5 -25v-461q0 -30 14.5 -45.5t53.5 -15.5h114q104 0 183.5 40t117 105t35.5 142q-3 79 -38 130t-84.5 82t-110 44.5t-103.5 13.5z" />
    <glyph glyph-name="Gamma" unicode="&#x393;" 
d="M1511 1267l16 -335q0 -20 -14 -22t-24 16q-6 9 -11 32.5t-21 69.5t-35.5 80t-47.5 56.5t-73 33t-107 10.5l-344 -1v-953q0 -134 31 -172t65.5 -49t91.5 -16l77 -8q13 -2 14 -20t-24 -18h-574q-27 0 -25 17.5t22 20.5l63 8q47 6 73.5 30t36.5 73.5t10 133.5v776
q0 71 -20 115t-44.5 56t-68.5 19l-41 6q-30 4 -30.5 22.5t13.5 18.5h991z" />
    <glyph glyph-name="uni0394" unicode="&#x394;" 
d="M405 -5l613 1340l625 -1341zM540 104h860l-420 975z" />
    <glyph glyph-name="Epsilon" unicode="&#x395;" 
d="M1460 1288l24 -294q1 -21 -14.5 -22t-25.5 22q-3 6 -14 44.5t-29.5 73t-43.5 57.5t-64 36t-74 13h-406v-511h290q37 0 83 9t76 28.5t47 48t20.5 70t9.5 54.5t22.5 13.5t16.5 -27.5v-436q0 -28 -14.5 -30.5t-24.5 19.5q-3 5 -4.5 24t-7 37.5t-18 39.5t-38 39t-60 26
t-108.5 8h-290v-442q0 -82 24 -103t72 -21l344 -1q49 -1 85 8.5t68.5 27t57 41.5t50 64t37 77t25.5 50t26 8t5 -30l-98 -325h-1012q-21 0 -18 18t18 20l51 5q47 4 78.5 24.5t39.5 58.5t8 130v846q0 58 -29 101.5t-89 54.5l-43 5l-33 6q-12 2 -14 18.5t17 16.5h977z" />
    <glyph glyph-name="Zeta" unicode="&#x396;" 
d="M449 -13l855 1225h-421q-46 0 -88 -6t-85.5 -26t-63 -53t-32 -84.5t-16 -75t-9 -39.5t-21 -16.5t-13.5 15.5l31 351h950l-860 -1231h522q49 0 107.5 13.5t97 36.5t65 60t35.5 59t20.5 55.5t22.5 44t22.5 4t8.5 -24.5l-68 -310z" />
    <glyph glyph-name="Eta" unicode="&#x397;" 
d="M1381 661l-1 373q-1 28 -11.5 69.5t-32.5 70.5t-51.5 41.5t-62.5 17.5l-42 5q-27 3 -25.5 23t25.5 20h513q27 0 25 -20t-23 -23l-35 -5q-34 -5 -62 -16.5t-48.5 -35.5t-29 -63t-8.5 -84v-789q0 -31 7.5 -72t29.5 -71t51.5 -43.5t64.5 -20.5l36 -8q28 -7 24 -24.5
t-27 -17.5h-506q-28 0 -29.5 18.5t29.5 23.5l54 8q22 3 55.5 22t51.5 47t22 64t5 71l1 359h-707l-1 -366q-1 -32 6 -73t28.5 -70.5t54 -44.5t62.5 -20l37 -7q28 -6 24 -24.5t-27 -18.5h-504q-27 0 -29.5 19t29.5 24l54 7q21 2 55.5 22t51.5 47t21.5 65.5t4.5 70.5v793
q0 31 -10 70t-33.5 70.5t-48 41.5t-66.5 17l-41 6q-25 3 -24 22.5t24 19.5h510q26 0 24 -19.5t-21 -22.5l-36 -6q-38 -7 -63 -16.5t-45.5 -35t-29.5 -64t-8 -83.5l1 -364h707z" />
    <glyph glyph-name="Theta" unicode="&#x398;" 
d="M945 724h120q48 0 75.5 8.5t43 27.5t25.5 64.5t14 53.5t19.5 10t15.5 -17v-398q0 -21 -16 -25.5t-27 17.5q-4 5 -7 39.5t-27 56.5t-49.5 31t-66.5 9h-120q-71 0 -94.5 -33.5t-29.5 -69.5t-9 -45t-21 -16.5t-18 25.5v403q0 16 14.5 16.5t21.5 -10.5q3 -7 5 -29.5t13 -49
t36 -47.5t82 -21zM402 595q-1 120 26.5 239.5t121.5 243t211.5 174t251.5 52.5q132 1 262 -48.5t217.5 -171.5t116.5 -246.5t26 -242.5q-4 -136 -42.5 -240.5t-117.5 -201.5t-195 -153t-267 -56q-169 -1 -283.5 60.5t-188.5 160.5t-105.5 196.5t-33.5 233.5zM1013 17
q107 0 189 44t150.5 134t96 195t25.5 243q-3 138 -33.5 253t-100.5 199t-154.5 117.5t-172.5 31.5q-89 -3 -170.5 -39.5t-143.5 -115t-97 -196t-40 -245.5t25 -239q31 -122 97.5 -210.5t146 -130.5t182.5 -41z" />
    <glyph glyph-name="Iota" unicode="&#x399;" 
d="M955 229v797q0 31 -10 71t-33 70t-49.5 41.5t-65.5 17.5l-41 6q-26 3 -24 22.5t24 19.5h510q26 0 24 -19.5t-21 -22.5l-36 -6q-35 -6 -62 -17t-47 -35t-28.5 -63.5t-8.5 -84.5v-793q0 -33 6.5 -74t28 -70.5t54 -44.5t62.5 -20l37 -7q29 -6 24.5 -24.5t-27.5 -18.5h-504
q-27 0 -29.5 19t29.5 24l54 7q23 3 56 21.5t50.5 47.5t22 66t4.5 70z" />
    <glyph glyph-name="Kappa" unicode="&#x39a;" 
d="M703 688h82q31 0 70 24t88 77l103 118l145 163q36 43 54.5 75.5t16.5 46.5t-11.5 27t-44.5 20l-56 11q-25 4 -24.5 20t27.5 16l460 -1q16 -1 20.5 -14t-20.5 -18l-48 -11q-51 -12 -79 -25.5t-60 -40t-77 -73.5l-125 -130l-158 -164l-77 -82l446 -522q36 -43 69.5 -76.5
t67.5 -57t66 -29.5l77 -17q23 -6 23.5 -21.5t-20.5 -15.5l-493 -1q-32 -1 -27.5 15.5t24.5 19.5l45 6q43 5 58 28t7.5 45t-34.5 55l-60 71q-68 79 -138 157t-118 135.5t-86 87t-76 29.5h-117l-2 -398q-1 -66 13.5 -108t44.5 -61.5t68 -30.5l57 -17q26 -8 23.5 -24t-28.5 -16
h-483q-34 0 -33.5 15.5t30.5 24.5l57 17q34 10 63.5 35.5t39 69.5t9.5 94v803q0 44 -14.5 89t-44 64.5t-83.5 36.5l-41 12q-21 6 -21 23.5t24 17.5h507q16 0 20 -16.5t-21 -22.5l-58 -14q-40 -10 -72 -32.5t-45 -64.5t-12 -93z" />
    <glyph glyph-name="Lambda" unicode="&#x39b;" 
d="M1026 1324l446 -1089q38 -93 61 -122.5t49 -45t56 -23.5l49 -14q15 -5 13.5 -19.5t-21.5 -14.5h-464q-24 0 -28.5 13.5t22.5 20.5l49 12q42 10 60 25t19.5 42.5t-7.5 55.5l-33 80l-303 779l-324 -786l-31 -73q-14 -38 -10 -61q5 -32 26.5 -48.5t70.5 -27.5l33 -8
q20 -5 17 -20t-27 -15h-385q-16 0 -19 14.5t13 20.5l27 8l49 14q43 15 68 44t45 70t41 91z" />
    <glyph glyph-name="Mu" unicode="&#x39c;" 
d="M515 1275l499 -1042l508 1052l303 -1q25 -1 26.5 -16.5t-24.5 -21.5l-52 -12q-59 -14 -91 -53t-31 -115l1 -805q0 -73 13 -119t48 -76t77 -37l47 -9q21 -5 20 -22.5t-20 -17.5h-502q-23 0 -22.5 18.5t16.5 21.5l58 11q57 10 84 39.5t34.5 71.5t7.5 119v832l-542 -1099
l-509 1066v-837q0 -81 25 -125.5t60.5 -59.5t66.5 -20l43 -8q18 -4 15.5 -21t-21.5 -17h-430q-28 0 -26 16.5t20 21.5l45 11q52 12 72.5 20.5t39.5 47t19 134.5l-1 811q-1 88 -35.5 130.5t-101.5 59.5l-46 11q-17 4 -16 22t19 18h303z" />
    <glyph glyph-name="Nu" unicode="&#x39d;" 
d="M665 1282l789 -938v695q0 50 -16 97.5t-46.5 69.5t-71.5 32l-62 14q-25 5 -21 22t26 17h434q25 0 26.5 -17.5t-24.5 -21.5l-46 -8q-44 -8 -75.5 -33.5t-42 -70t-10.5 -98.5v-1047l-898 1085v-835q0 -64 16 -110t51.5 -71t82.5 -34l41 -8q21 -5 18.5 -24t-31.5 -19h-404
q-27 0 -28.5 17t20.5 23l50 13q37 9 66 30.5t38 63t9 130.5v876q-23 26 -42 43.5t-54.5 33t-78.5 22.5l-68 10q-22 3 -21 22t21 19h352z" />
    <glyph glyph-name="Xi" unicode="&#x39e;" 
d="M516 1280h985l22 -297q1 -24 -15.5 -24.5t-27.5 16.5l-27 55q-19 34 -55 60t-69 39.5t-67 20.5t-80 7h-332q-41 0 -94.5 -11t-87.5 -30t-62.5 -53t-39.5 -58l-17 -38q-15 -25 -31 -22t-15 25zM877 716h209q47 0 88 8.5t66.5 28t39.5 47.5t20 55.5t12 40.5t22.5 13.5
t16.5 -16.5v-431q0 -23 -15 -27t-28 19q-2 1 -14 48t-58 69.5t-150 22.5h-209q-74 0 -106 -29t-44 -59l-14 -44q-9 -26 -27.5 -28.5t-18.5 25.5v426q0 20 14 21t24 -13q7 -12 10.5 -51t21.5 -67t49.5 -43.5t90.5 -15.5zM518 -19l-72 331q-4 21 10.5 21.5t24.5 -10.5
q11 -15 34 -61t51.5 -80t61.5 -51t95.5 -23t129.5 -6h332q26 0 93.5 7t121.5 28t89 99.5t46 94.5t24.5 12t9.5 -26l-65 -337z" />
    <glyph glyph-name="Omicron" unicode="&#x39f;" 
d="M414 710q16 199 98.5 337t219.5 209t287 74q167 2 297.5 -71.5t215.5 -209.5t97.5 -326.5t-42.5 -345.5q-50 -140 -138 -231t-198 -137t-232 -46q-140 -2 -243.5 47.5t-193 143.5t-136 234t-32.5 322zM572 618q3 -137 35 -250.5t140 -226.5t272.5 -113.5t294.5 134.5
q84 88 117 202t37 239.5t-9 215.5q-16 103 -60 197.5t-139.5 171.5t-240.5 76q-135 -2 -228 -74t-141.5 -167t-64.5 -196.5t-13 -208.5z" />
    <glyph glyph-name="Pi" unicode="&#x3a0;" 
d="M407 1218l-62 11q-21 3 -24.5 21.5t21.5 18.5h1334q20 0 21.5 -17t-19.5 -20l-41 -7q-55 -10 -85.5 -33.5t-43 -62t-12.5 -116.5v-737q0 -73 8.5 -130.5t41 -83.5t73.5 -35l44 -10q26 -7 26.5 -25t-24.5 -18h-491q-25 0 -25.5 19t22.5 24l49 10q48 9 80.5 45.5t43 86.5
t10.5 114v740q0 80 -13.5 114.5t-61.5 57t-116 22.5h-321q-37 0 -77.5 -11.5t-65.5 -38t-34 -59t-9 -88.5l-1 -731q-1 -70 5.5 -120t41 -87t73.5 -45l61 -13q24 -6 20.5 -23t-26.5 -17h-502q-18 0 -16.5 16.5t19.5 21.5l46 11q35 8 76.5 32.5t53.5 76t12 147.5v731
q0 77 -10.5 113.5t-39 62t-62.5 32.5z" />
    <glyph glyph-name="Rho" unicode="&#x3a1;" 
d="M842 608v-357q0 -68 16 -110.5t46 -69t82 -36.5l55 -11q19 -4 18.5 -22t-21.5 -18h-491q-34 0 -33.5 19t25.5 24l32 6q39 7 67.5 19.5t46 56.5t17.5 142v786q0 58 -12 95t-39.5 61t-68.5 35l-62 16q-28 7 -27 25.5t21 18.5h551q75 0 129.5 -5t132.5 -38.5t125 -106
t49.5 -181.5t-46.5 -205.5t-145.5 -135.5t-241.5 -37q-122 1 -171 15l-55 14v0zM842 1184v-494q0 -25 64.5 -37t134.5 -9q87 3 156 32.5t107 101.5t37 169q-1 85 -36.5 149t-116.5 94t-196 27q-49 -2 -99.5 -8.5t-50.5 -24.5z" />
    <glyph glyph-name="Sigma" unicode="&#x3a3;" 
d="M450 -19l458 607l-418 691l955 1l17 -298q1 -24 -15.5 -27.5t-30.5 16.5q-8 10 -18.5 40.5t-33.5 69.5t-63 70t-90.5 40t-97.5 9h-391l336 -563l-412 -556h570q55 0 87.5 5t68.5 18t66.5 36.5t59.5 68.5l46 74q22 30 36 22.5t7 -28.5l-107 -294z" />
    <glyph glyph-name="Tau" unicode="&#x3a4;" 
d="M1545 1289l33 -292q1 -13 -15.5 -21.5t-23.5 19.5l-19 67q-10 35 -34 68t-72.5 51.5t-139.5 18.5h-187v-938q0 -67 14 -112.5t51 -72.5t95 -39l47 -10q25 -6 24.5 -23t-22.5 -17h-537q-36 0 -31 18t26 22l44 8q53 9 87.5 36.5t47.5 72t13 117.5v938h-222
q-62 0 -111 -21.5t-72.5 -59t-32.5 -73.5l-16 -62q-5 -19 -22.5 -16.5t-16.5 27.5l19 294h1073z" />
    <glyph glyph-name="Upsilon" unicode="&#x3a5;" 
d="M455 1303q26 2 61 4t78 1q75 -4 143 -27t125 -76.5t90.5 -137.5t42.5 -141l25 -147q8 84 19 148t48 151t105 145t136 75.5t122 15.5q90 -5 139.5 -49.5t52 -105t-30.5 -93.5t-81 -32q-53 0 -86 35l-44 62q-23 27 -56 37t-76 -12q-35 -19 -70.5 -69.5t-63 -123.5
t-35.5 -134.5t-8 -131.5v-464q0 -55 17 -108t50 -71.5t90 -24.5l52 -6q21 -3 21.5 -23t-26.5 -20h-543q-40 0 -30.5 20.5t27.5 22.5l66 6q62 5 87 22t35.5 66t10.5 116v464q0 53 -13 139.5t-50.5 177.5t-101.5 141.5t-132 63.5t-131 5l-46 -6z" />
    <glyph glyph-name="Phi" unicode="&#x3a6;" 
d="M1068 1117q36 0 136 -1t241 -44t209 -121t92.5 -212.5t-25.5 -249.5q-49 -112 -145 -174t-218 -88.5t-221 -29.5l-69 -3q3 -24 7.5 -44t19.5 -45t38.5 -44t57.5 -28l49 -13q26 -11 24.5 -25.5t-24.5 -14.5h-483q-21 0 -21.5 14t19.5 23q4 2 43.5 9.5t77 39t45.5 90.5
l6 38q-51 1 -118 5t-175 29.5t-193.5 89.5t-128 178t-21 242t81.5 206.5t188.5 120t262.5 47.5l103 5q-10 27 -21.5 45.5t-37.5 33.5t-50.5 24.5t-49 14.5t-33 12.5t-8 20t16.5 12.5h491q23 0 24 -15t-19 -23q-4 -2 -23 -5.5t-51.5 -15t-54 -25t-29.5 -40.5l-14 -39v0z
M927 244v824q-45 -2 -110.5 -6.5t-158.5 -39.5t-144.5 -94.5t-69.5 -179t2.5 -213.5t73.5 -153t141.5 -92.5t197.5 -40.5l68 -5v0zM1068 1068v-824q41 0 121.5 4t195.5 55t171.5 158t34 250.5t-77 210.5t-168 106.5t-236.5 39.5h-41v0z" />
    <glyph glyph-name="Chi" unicode="&#x3a7;" 
d="M948 625l-270 422q-46 71 -65.5 96t-38.5 41t-49.5 29.5t-55.5 19.5l-50 10q-32 6 -29.5 26t21.5 20h506q21 0 24 -21t-22 -25l-53 -10q-23 -5 -43 -20t-22 -38.5t9 -45t39 -64.5l202 -312l243 318q27 36 41.5 60.5t13.5 49.5q-2 25 -18 39t-47 18l-46 5q-32 3 -28.5 26
t19.5 23h427q27 0 29.5 -23.5t-24.5 -25.5l-46 -5q-27 -3 -65.5 -17.5t-73 -46t-65.5 -71.5l-318 -414l302 -463q30 -48 60.5 -85t71.5 -62.5t80 -33.5l63 -14q24 -6 23.5 -27t-26.5 -21h-533q-25 0 -26.5 23t24.5 27l38 6q55 8 75.5 19.5t23.5 38.5t-23.5 67t-26.5 41
l-225 352l-268 -357l-31 -44q-26 -37 -26.5 -53t13.5 -40t44 -27l58 -7q30 -4 24.5 -26t-33.5 -22h-412q-32 0 -30.5 22.5t19.5 25.5l54 7q31 4 70 22.5t76 56t96 114.5z" />
    <glyph glyph-name="Psi" unicode="&#x3a8;" 
d="M325 1211v58q19 13 37.5 24t52.5 19t71.5 5.5t83 -42t57.5 -162.5l5 -225q3 -111 36 -189.5t113.5 -136.5t127.5 -65l41 -8v529q0 52 -10 92.5t-35.5 74t-74.5 48.5l-74 20q-14 6 -17.5 22t17.5 16h500q28 0 25 -16t-12 -20.5t-61 -14t-79 -44.5t-33.5 -77.5t-6.5 -100.5
v-529q34 8 65.5 18.5t82.5 46.5t93.5 91t58 117t17.5 167q0 87 -1 160.5t9 114.5q12 53 47 88t103 38q26 0 66 -8t57 -20l24 -17v-53q-50 16 -78 13t-45.5 -21.5t-23.5 -60t-6.5 -153.5t-7.5 -190.5t-69 -177t-157 -157t-180 -67.5l-55 -7v-176q0 -65 10 -103.5t54.5 -66.5
t77 -34t48 -12.5t15 -21t-18.5 -14.5h-508q-28 0 -20.5 17.5t26.5 21.5l44 6q45 8 77.5 36t44 71t11.5 100v176q-44 3 -111.5 13.5t-150.5 72.5t-134 142.5t-64.5 157t-14 166t-1.5 146.5t-21.5 88.5t-54.5 35.5t-49 -7l-24 -15v0z" />
    <glyph glyph-name="uni03A9" unicode="&#x3a9;" 
d="M781 95q-41 28 -82 59t-109 102t-127 201.5t-51 290.5q6 137 77 273.5t217.5 222t316.5 88.5q164 2 300.5 -70t218 -193.5t98 -282t-40.5 -309.5q-40 -104 -112 -190.5t-123 -120.5l-101 -71h159q57 0 91 10.5t62.5 34.5t48.5 59.5t32.5 66.5t23 44t24.5 10.5t9 -31.5
l-59 -303l-514 -2v106q24 12 48.5 26t69.5 53t101.5 121.5t91 201t33.5 247.5q-2 127 -47 241t-155 196t-259 80q-152 -4 -255 -87t-150.5 -192.5t-50.5 -221.5t19 -206q22 -102 61.5 -178.5t78.5 -126.5t71 -78.5t73 -50.5l44 -25v-104l-519 -2l-62 305q-4 24 11.5 24.5
t26.5 -16.5q5 -10 19 -42t39.5 -71.5t64.5 -64t101 -24.5h186z" />
    <glyph glyph-name="alpha" unicode="&#x3b1;" 
d="M1217 625q36 86 41 98l68 178h120l-181 -457q2 -26 4.5 -45.5t22.5 -86t39 -106.5t52 -65.5t66 -28.5q17 -2 30.5 1t33 13.5t31.5 9t17 -9.5t-17 -28l-101 -56q-74 -41 -90 -40q-24 0 -41.5 15t-29.5 70l-24 101l-18 80l-18 73q-52 -99 -97.5 -173.5t-114.5 -121.5
t-173 -46q-78 0 -149 36t-131 130t-66.5 211.5t14.5 198.5q18 66 62.5 141.5t95.5 117.5t110.5 69t140.5 26q76 -1 129 -30.5t92 -82t52 -96.5l30 -96v0zM1183 528q-8 34 -17 69t-38 103.5t-79.5 113.5t-125.5 51q-76 5 -145.5 -38.5t-109 -120.5t-55.5 -196t9 -237
t95.5 -173.5t166.5 -28.5q64 18 118.5 85.5t91.5 148t55 129.5l34 94v0z" />
    <glyph glyph-name="beta" unicode="&#x3b2;" 
d="M1168 887q32 -18 53.5 -31.5t67 -53.5t81 -114.5t40 -180.5t-29.5 -204q-37 -103 -105 -174t-141.5 -100t-141.5 -27q-77 3 -126 34t-70 59l-36 44v-412l-122 1v1197q0 60 18 144.5t80.5 160.5t161 106.5t190.5 16.5q84 -14 148.5 -68.5t66.5 -133t-32 -141.5
q-31 -57 -72 -94l-31 -29v0zM760 215q33 -52 59.5 -79t85 -53t140.5 -1q77 23 134.5 99.5t75.5 180t-4 203.5q-18 77 -54.5 138t-73.5 96l-33 31q-30 -12 -53.5 -20t-53 -14t-67 -8t-58.5 14.5t-24 37.5t32 57.5t101 35.5t93 -8l35 -9q22 44 42 92t19 116q-2 61 -30 100.5
t-86.5 52.5t-120.5 -19q-67 -35 -102.5 -99t-46 -131t-10.5 -116v-697z" />
    <glyph glyph-name="gamma" unicode="&#x3b3;" 
d="M1014 175q13 24 33 60t35 61t63 103t72 123.5t25.5 69t-10.5 69.5q-9 32 -15 59.5t-6.5 69t33.5 74.5t82 31.5t82.5 -37t31.5 -102.5q-3 -46 -29 -95.5t-62.5 -109t-140.5 -218.5l-173 -264q8 -58 14.5 -112t5.5 -117q-2 -63 -14 -106.5t-32 -63.5t-51 -21t-54 40t-21 89
q1 51 14 87l25 77q-5 78 -12 120t-33 137t-63 190.5t-77 172.5t-60.5 105.5t-44.5 48.5t-43.5 24.5t-33.5 -2.5l-27 -15q-19 -2 -23.5 9.5t12.5 32.5q14 17 55.5 53.5t65.5 53t40 16.5q18 -1 39 -18.5t45 -55t63.5 -113t87 -210.5t57.5 -168l44 -148v0z" />
    <glyph glyph-name="delta" unicode="&#x3b4;" 
d="M906 940q-93 59 -151.5 94.5t-85.5 59.5t-52.5 62t-23 83.5t42 89.5t179.5 30q78 -9 172 -37l145 -48q70 -24 104 -56t24.5 -54.5t-43.5 -23.5q-19 -1 -61.5 24t-113 54.5t-146 50t-136.5 22.5t-75.5 -12.5t-15 -32t34.5 -43.5q44 -35 174 -110t217.5 -129t159.5 -124.5
t115 -177t21 -256.5q-16 -106 -72 -203t-158 -156.5t-225 -52.5q-144 7 -230.5 84t-125 176.5t-37.5 219.5q1 118 41.5 205.5t113.5 151t142.5 85t65.5 24.5zM985 897q-52 -13 -107 -33.5t-123.5 -96.5t-84 -200.5t8.5 -223.5q19 -84 62 -153t96.5 -102t122.5 -34
q74 -2 139 34t121 122t56.5 206.5t-22.5 190.5q-28 80 -79 136t-116 102l-74 52v0z" />
    <glyph glyph-name="epsilon" unicode="&#x3b5;" 
d="M1311 897v-131q-32 10 -66.5 21.5t-87 22.5t-100.5 15q-58 3 -123.5 -7.5t-100 -42.5t-43.5 -72t5 -74q13 -36 49 -66l28 -25q53 23 88 33t101 12t89.5 -20.5t24.5 -39.5t-17 -36.5t-67.5 -21t-93 1.5t-63.5 11l-60 19q-36 -30 -73 -70t-41.5 -119t46.5 -146
q41 -55 104.5 -79.5t141.5 -18.5q97 7 148.5 43t74.5 68t36 60l21 50q3 8 14 27t20 21t15.5 -12t0.5 -34l-14 -49q-7 -20 -25.5 -59t-51.5 -84.5t-114 -76t-166 -32.5q-86 -3 -176.5 25t-141 97.5t-48.5 153.5q3 87 49 142t76 74l58 38q-66 41 -110 86.5t-43 110.5
q0 47 37 95.5t120 82t214 32.5q88 -1 194 -16l71 -10v0z" />
    <glyph glyph-name="zeta" unicode="&#x3b6;" 
d="M974 1114q-28 12 -79 36t-100 59.5t-66.5 57.5t-18.5 39.5t26 47.5q24 27 53 48.5t53 36t30 10.5t6 -18q-1 -6 -40.5 -37.5t-40 -57.5t20.5 -53q17 -23 61 -51t91 -47l52 -22q40 30 87.5 65t102 58.5t120.5 29t88 -17t17 -56t-37 -62.5t-82.5 -52t-112.5 -33.5t-101 -5.5
l-59 6q-21 -28 -58.5 -80t-88 -147.5t-79.5 -201.5t-31.5 -221.5t24.5 -195.5q22 -68 55.5 -97.5t71 -39t143 -4.5t134.5 7q72 4 112.5 -5t61.5 -35.5t22 -83.5t-21 -115q-27 -71 -78 -123.5t-106.5 -78.5t-105.5 -24q-46 1 -71 21t-30 46.5t15 51.5t49 25.5t46 -13.5
l27 -33q13 -14 28 -17q16 -4 49.5 11t59 40.5t48 72.5t19.5 92q-3 32 -17.5 45t-55.5 16q-37 2 -103 -1t-135 -4q-84 -2 -151 10.5t-123.5 72t-75 179t-7.5 227.5q12 117 53.5 224t104 203.5t120.5 166.5l23 28v0z" />
    <glyph glyph-name="eta" unicode="&#x3b7;" 
d="M789 915l1 -226q23 27 51.5 59t79 70t108.5 58.5t113 17.5q93 -6 147.5 -62t66.5 -142.5t12 -191.5l-1 -817l-115 -1l-1 831q-1 162 -50 213t-124 55q-69 3 -133.5 -35.5t-104.5 -79.5l-49 -49v-632l-122 1v612l-7 77q-4 38 -16.5 60.5t-45.5 22.5l-36 -8l-13 -2
q-17 -3 -26.5 -1.5t-13.5 13.5t18 21l22 8q20 7 59 23.5t80 38t60 36.5l40 30v0z" />
    <glyph glyph-name="theta" unicode="&#x3b8;" 
d="M1028 1359q126 3 221 -64.5t142 -202t55 -285.5t0 -251q-11 -122 -46.5 -242t-119.5 -221t-238.5 -106t-254.5 83q-99 86 -131.5 238.5t-36.5 264.5t5 234q10 131 47 265t135.5 208.5t221.5 78.5zM741 706q-1 -22 -0.5 -93.5t13 -191.5t53 -210t97.5 -127.5t124 -35.5
q82 1 140 50.5t94.5 143t50.5 192.5t14 210v62h-586zM1327 783q-6 63 -14 121.5t-35.5 154.5t-91.5 159t-160.5 63.5t-166.5 -73.5q-55 -58 -76.5 -151.5t-30.5 -178.5l-11 -95h586z" />
    <glyph glyph-name="iota" unicode="&#x3b9;" 
d="M1085 927v-713q0 -40 9.5 -68t29.5 -40.5t54 -11.5q25 0 52 7.5t40 5.5t18 -15t-14 -20l-139 -57q-92 -37 -113 -29.5t-36 27.5t-20 72t-4 101l1 411q0 42 -6 95t-20 66t-31 15q-16 1 -33 -8t-31 -8.5t-16 16t16 22.5l30 11q28 10 78 34.5t65 36.5l70 50v0z" />
    <glyph glyph-name="kappa" unicode="&#x3ba;" 
d="M817 927l-1 -427q34 39 96 109t136 142.5t132 116t116 48.5t89 -24t30.5 -70.5t-22.5 -62.5t-74 -28l-106 -11q-70 -11 -111.5 -35t-129.5 -107l-41 -39l282 -345q103 -127 157 -118l68 16q16 -1 22 -13t-16 -22l-139 -65q-57 -28 -69 -24.5t-38 34.5l-381 455v-462h-123
v662q0 59 -29 87.5t-71.5 20.5t-50.5 -6t-10.5 13.5t13.5 18.5l20 8l65 25q49 20 101 52l85 51v0z" />
    <glyph glyph-name="lambda" unicode="&#x3bb;" 
d="M540 -2q154 324 178 375l265 559q-15 32 -28 59.5t-37.5 65t-56.5 58t-74 27.5l-84 6q-54 5 -78.5 30t-22.5 65q1 35 25 59t82 25q50 0 95.5 -19.5t87.5 -63.5t77 -104t67 -146.5t100 -299.5l93 -289q32 -104 50 -155t39.5 -89.5t43 -53.5t49.5 -15q21 -1 46 9.5t33.5 12
t13.5 -3.5t3 -16q-3 -11 -39.5 -38.5t-77.5 -49t-60.5 -27t-26.5 -4.5q-21 2 -37.5 38t-25.5 67l-205 685l-352 -766z" />
    <glyph glyph-name="uni03BC" unicode="&#x3bc;" 
d="M660 894h123l-2 -520q-1 -79 6.5 -124t40.5 -94t115 -57q58 -6 114 24t96 66l71 62l-1 644l130 1l3 -631l2 -73q0 -43 13 -64t45 -24q10 -2 31 2.5t34.5 9t22.5 1.5t12 -14.5t-28 -28.5q-22 -12 -60 -29t-73 -35t-58 -21t-38 7q-19 10 -26 45.5t-7 70.5l-2 77
q-66 -67 -112 -105.5t-109.5 -70.5t-120 -29.5t-94 28.5t-43.5 40l-43 72q-1 -42 0 -80t9 -88l17 -96q7 -50 5 -82q-4 -45 -26 -69.5t-50.5 -25t-53 21t-30.5 59t1 87.5l32 145q14 64 29.5 212.5t18.5 188.5t4 84z" />
    <glyph glyph-name="nu" unicode="&#x3bd;" 
d="M1063 217l142 259q25 45 38.5 92.5t10.5 87.5q-1 1 -11 53t-10.5 111.5t28 85t72.5 24.5q40 -2 64 -25.5t27.5 -77t-11 -97.5t-45.5 -101l-352 -635h-15l-192 577q-35 102 -48.5 138.5t-39 59.5t-53.5 16l-50 -17q-22 4 -23.5 19t21.5 34q11 8 39.5 26.5t68 46.5
t58.5 29.5t43 -16.5q23 -19 49 -83t32 -82l157 -525v0z" />
    <glyph glyph-name="xi" unicode="&#x3be;" 
d="M904 748q-40 23 -69.5 42.5t-54.5 53t-28.5 83t22.5 103.5q34 70 93 114l57 44q-69 30 -104 46.5t-66.5 36.5t-32 35t27.5 43q39 38 53 53t28 23.5t20.5 4.5t2.5 -21q-2 -5 -27.5 -30.5t-21.5 -43.5q2 -13 17.5 -26.5t47.5 -32.5t79 -34l47 -16q63 28 107 44.5t108 30
t124 14t79 -20t19.5 -36.5t-11.5 -32q-14 -18 -47.5 -32t-81 -20t-106.5 -6q-48 -1 -120 3l-69 3q-35 -25 -71 -54.5t-66 -82.5t-24 -102.5t49 -82.5l74 -65q41 25 76.5 45.5t73.5 35t93.5 28.5t98.5 2t47.5 -41t-18.5 -57q-18 -22 -50.5 -38t-68 -25t-82.5 -10
q-46 -2 -96 2l-58 4q-37 -31 -86 -77.5t-83.5 -127t-42.5 -179t32 -159t105 -78.5t158 -16.5t142 3.5q67 2 109 -7t70 -41.5t30 -77.5t-13 -91q-28 -83 -100.5 -154.5t-170.5 -74t-124.5 19.5t-28 48.5t17 48t62.5 27.5q26 3 44.5 -1.5t64.5 -26.5t72 -19q28 2 53 24
t39.5 68.5t13.5 83.5q-3 43 -20.5 58.5t-56.5 18.5q-29 2 -132 -2.5t-152 -1.5q-78 3 -148 25.5t-124 80.5t-56 159t17 166q21 71 76 152t102 118l59 48v0z" />
    <glyph glyph-name="omicron" unicode="&#x3bf;" 
d="M596 445q-2 135 46 247t150 171t211 63q120 3 224.5 -56.5t156.5 -172t49 -252.5q-3 -115 -48.5 -223t-152.5 -169.5t-229 -56.5q-118 3 -219 66.5t-143.5 168.5t-44.5 214zM732 429q4 -114 44.5 -208t100 -131.5t126.5 -39.5q56 -3 127 27.5t117 124.5t49 213
t-20.5 224.5t-103 169t-169.5 59.5q-80 -4 -152 -65t-97.5 -176t-21.5 -198z" />
    <glyph glyph-name="pi" unicode="&#x3c0;" 
d="M1551 898v-112h-220q-16 -57 -23 -92.5t-13 -116.5t-3 -170q1 -60 7 -128t14 -108.5t21.5 -51t28.5 -10.5q11 -1 42 11t41.5 17.5t18.5 4t13 -10t-25 -27.5q-17 -11 -42 -23t-47.5 -23.5t-50.5 -26t-49 -22.5t-30 -1q-6 3 -14 23.5t-13.5 66.5t-7.5 83.5t-2.5 137.5
t2.5 143q5 75 22.5 158t31.5 120l16 46h-392q0 -28 -0.5 -74t-4.5 -147t-17.5 -199t-35.5 -175.5t-47 -124t-65 -68t-76 -0.5t-40.5 63t44.5 98l62 68q28 36 51 93.5t38.5 127t24 155.5t8.5 137v46q-20 0 -54 -1t-90 -16.5t-102 -39t-68 -30t-27 -0.5t17 35q12 15 35.5 33.5
t62.5 43.5t91 47t101 31t103 9h663z" />
    <glyph glyph-name="rho" unicode="&#x3c1;" 
d="M778 111v-390h-121l1 799q0 95 7.5 146.5t43 110t97.5 101.5t171 46q99 2 204 -48.5t161.5 -162.5t52.5 -256q-5 -148 -61 -247t-138 -151.5t-153 -61.5q-78 -12 -126.5 9.5t-89.5 60.5l-49 44v0zM778 192q37 -41 65 -67.5t68.5 -46t97.5 -13.5q69 7 123 54t91.5 135.5
t42 182t-15.5 176.5q-28 114 -98 179.5t-170 60.5q-80 -5 -124 -48.5t-62 -97.5t-18 -143v-372z" />
    <glyph glyph-name="sigma" unicode="&#x3c3;" 
d="M1228 782q29 -27 62 -60.5t69 -103.5t35 -178q-2 -127 -64 -234.5t-157 -162t-209 -50.5q-122 3 -202.5 59.5t-128 134t-65.5 167t-5 184.5q14 101 64.5 178t131.5 118.5t164.5 50.5t223.5 10l267 3h120l-1 -112q-133 -2 -160 -2l-145 -2v0zM1131 780q-79 2 -140.5 0.5
t-123.5 -19.5t-105 -56t-65 -109t-17 -159q7 -147 72 -246t175.5 -133.5t207.5 36t120 181t19 198.5q-5 96 -32 158t-77 114l-34 35v0z" />
    <glyph glyph-name="tau" unicode="&#x3c4;" 
d="M1444 888v-117l-378 -1q-15 -29 -25.5 -56.5t-15 -87t-4.5 -120.5v-276q0 -71 23 -94t63 -24q21 -1 52 6t54.5 19t35 10.5t16.5 -11t-14 -26.5q-8 -8 -20 -13t-56.5 -28t-81 -38.5t-71.5 -29.5t-54 -13.5t-41.5 18t-22.5 90.5v406q0 45 5.5 79.5t24 73.5t38.5 66l36 49
q-48 0 -92.5 -0.5t-82 -6t-73 -20t-67.5 -33t-56.5 -35t-39.5 -21t-20.5 1.5t0.5 24q5 16 34 42t65 56.5t86 59t102.5 39.5t105.5 11h474z" />
    <glyph glyph-name="upsilon" unicode="&#x3c5;" 
d="M852 782v-427q0 -66 7 -119.5t42 -90t122 -35.5q77 0 138.5 39.5t99.5 119.5t44 155t-9 130q-19 67 -52 104t-71.5 71.5t-50 58.5t-8 56.5t28.5 57.5t68 25q33 -1 74 -27t67 -91.5t37.5 -120.5t10.5 -136q-2 -84 -15.5 -152.5t-42 -139t-89 -138t-131.5 -98t-141 -30.5
q-45 -1 -90 12.5t-84.5 50.5t-59 79.5t-19.5 110.5v348q0 154 -28.5 175t-36.5 21.5t-10 0.5l-72 -21q-19 -4 -25 3t3 24q3 6 19 18t77 51.5t95.5 64.5t51.5 21q11 -4 24.5 -20.5t19.5 -75.5t6 -75z" />
    <glyph glyph-name="phi" unicode="&#x3c6;" 
d="M950 918v51q0 35 -4.5 97t-12 118t-7 92.5t22.5 61.5t62.5 21.5t59 -32.5t15.5 -87l-13 -140q-3 -43 -3 -141v-57q34 -3 91 -9t163 -59t151 -180t17 -249t-76.5 -192t-124 -114t-156.5 -49l-65 -6v-315h-122l2 270q-45 0 -116.5 6.5t-176 80.5t-149 187t-33 240
t75.5 212.5t165.5 135.5t183.5 54l50 3v0zM948 79l2 768q-23 0 -57.5 -1.5t-98.5 -29.5t-117.5 -91t-72 -164.5t12 -206.5t103.5 -187t156 -83l72 -5v0zM1070 107q53 5 99 17.5t105 69t85.5 169.5t4.5 214q-20 88 -81 158t-134 78l-79 12v-718z" />
    <glyph glyph-name="chi" unicode="&#x3c7;" 
d="M1459 876l-382 -413q67 -122 102.5 -178.5t69 -98t72 -64.5t94.5 -30q37 -5 64 5t36 5t9.5 -15.5t-10.5 -21.5t-35 -24l-68 -38q-54 -29 -82 -28q-38 1 -71 30.5t-55.5 62t-41.5 67.5l-149 255l-360 -388h-122l432 470q-49 90 -83 140t-76.5 79t-104.5 37l-80 5
q-51 5 -74 28.5t-21.5 61t40 63.5t116.5 12t135 -60.5t89 -91t90 -141.5l35 -60l310 331h121z" />
    <glyph glyph-name="psi" unicode="&#x3c8;" 
d="M957 95v791q0 146 -10.5 242.5t-12.5 127.5t17.5 57t55.5 28.5t60.5 -21.5t26 -62t-0.5 -66l-12 -115q-1 -18 -1 -98v-840q28 0 59.5 3t90.5 32.5t108.5 101t65 143t14.5 137.5q-2 63 -14 109.5t-34.5 108.5t-38 85t-16 35.5t9.5 18.5t32 -10q17 -14 47.5 -64t54 -102
t45 -156t1.5 -210q-23 -120 -91.5 -204.5t-139 -119t-138.5 -36.5l-56 -3v-316h-123v281q-36 1 -79 4.5t-142.5 40.5t-159.5 138t-77.5 181.5t-16.5 172.5q1 88 16.5 164t41.5 128.5t71 81t82.5 24.5t71 -39t8.5 -92q-12 -27 -41 -44l-46 -21q-44 -20 -67 -47t-43 -71.5
t-21 -164t105 -227.5q51 -54 123 -81.5t121 -25.5h53v0z" />
    <glyph glyph-name="omega" unicode="&#x3c9;" 
d="M978 292q-17 41 -28.5 73.5t-18 70.5t-9 104.5t11.5 104.5q11 32 33.5 49.5t51.5 17.5q35 -1 66 -33t31.5 -107t-6.5 -116q-10 -51 -26 -92l-27 -69q10 -26 24.5 -57.5t59.5 -76.5t109 -50t128 48q59 48 84 122.5t28 164t-15 146.5q-17 49 -46.5 78t-92.5 53t-83 41.5
t-34 57.5t23.5 76.5t86.5 36.5q48 -1 92.5 -32t80.5 -91.5t52.5 -127t20.5 -130t1 -122.5q-8 -119 -43 -209t-96.5 -151.5t-117 -78t-112.5 6.5q-42 16 -85.5 62t-72.5 97l-33 54q-37 -57 -70 -103t-84 -81.5t-113 -38.5q-63 -4 -118 26.5t-103 90t-72.5 143t-25.5 176
t16 163.5q14 57 45 119t65 103.5t71 72.5t72.5 54t47.5 10t8 -29q-3 -9 -21.5 -24.5t-45 -53.5t-45.5 -70t-42.5 -112.5t-27 -184t17.5 -190.5q21 -90 63 -129.5t97.5 -45t112.5 32.5q58 39 92 107l22 43v0z" />
    <glyph glyph-name="uni0401" unicode="&#x401;" 
d="M1466 1198l21 -274q1 -24 -11 -30t-29 20q-6 7 -12.5 35t-25 59t-46 57.5t-63.5 40t-93 13.5h-385l1 -463h286q40 0 84 8t74 27t47 46t20.5 66t9.5 51t22 11.5t16 -25.5v-410q0 -25 -14.5 -27.5t-23.5 18.5q-3 5 -5 23t-7 34t-18 36.5t-36.5 37t-60.5 24.5t-108 8h-286
v-414q0 -77 23.5 -97.5t71.5 -19.5l338 2q53 0 89 7.5t66 22.5t56.5 40.5t49.5 59t35 70t26 50t26 8t5 -29.5l-97 -303h-1003q-18 0 -17 16t17 18l52 5q48 4 78 22.5t37.5 54.5t8.5 122l1 754q0 37 -11 78t-37.5 62t-74.5 32l-61 13q-23 5 -22 23t31 18h955zM1204 1525
q30 0 56.5 -14.5t43.5 -43.5t17.5 -58.5t-16.5 -58.5q-17 -28 -43 -44t-58 -15q-32 0 -59.5 15.5t-43.5 43t-15 59.5q0 30 16 58.5t43.5 42.5t58.5 15zM787 1525q30 0 57 -14.5t43 -43.5t16.5 -59t-15.5 -58t-43 -44t-58 -15q-32 0 -59.5 15.5t-43.5 43t-15 59.5
q0 30 16 58.5t43.5 42.5t58.5 15z" />
    <glyph glyph-name="uni0410" unicode="&#x410;" 
d="M1029 1308l406 -1017q40 -101 61.5 -144.5t55.5 -72.5t68 -37l49 -13q29 -8 25 -27t-25 -19h-460q-22 0 -25 18.5t20 21.5l46 6q38 4 63.5 17.5t31.5 41t-12 76.5l-94 244h-501l-87 -217q-10 -25 -16.5 -59.5t-4.5 -48.5q3 -31 17.5 -40.5t58.5 -16.5l48 -8
q24 -5 21.5 -24t-21.5 -19h-389q-28 0 -22.5 17.5t22.5 22.5l29 8q23 6 45.5 15t51.5 36t45 57.5t45 100.5zM761 457h453l-222 584z" />
    <glyph glyph-name="uni0411" unicode="&#x411;" 
d="M1424 1277l17 -326q0 -14 -14 -19.5t-30 19.5q-4 5 -14.5 32t-35 66t-54.5 72t-85.5 59.5t-121.5 26.5h-158q-30 0 -60.5 -11.5t-38 -39t-7.5 -105.5v-341h216q109 0 231 -20t174 -94t66 -127.5t18.5 -122.5t-23.5 -140q-32 -81 -103 -133.5t-196.5 -72.5t-289.5 -20
h-415q-19 0 -17 15.5t14 18.5l30 6l49 6q53 7 76.5 34t28.5 65.5t5 118.5v697q0 121 -2 161t-30.5 75t-83.5 46l-59 11q-30 5 -27.5 24.5t21.5 19.5zM822 645v-464q0 -58 4 -81t22.5 -38t74.5 -15h106q74 0 155 30.5t128.5 85.5t54 145t-20.5 159q-31 74 -102 126t-239 52
h-183z" />
    <glyph glyph-name="uni0412" unicode="&#x412;" 
d="M1176 644q65 -16 112.5 -31t101.5 -50t87.5 -95t31.5 -150q-4 -114 -55 -181.5t-123 -103t-160 -45.5t-205 -10h-445q-36 0 -34 18.5t24 21.5l38 5q48 6 78.5 20t46.5 39t16 107v873q0 42 -8 73t-28.5 54t-70.5 30l-81 11q-21 2 -21 21.5t21 19.5h468q74 0 140.5 -9.5
t142.5 -38.5t133.5 -93.5t59.5 -173.5t-38 -174q-53 -84 -117 -100l-115 -38v0zM966 1206h-81q-25 0 -38.5 -11.5t-13.5 -26.5v-445q0 -26 8.5 -33t32.5 -7l117 -1q54 -1 108 16.5t99 46t74 76t29.5 131t-32.5 136.5q-31 47 -88.5 75.5t-103 35.5t-111.5 7zM1015 612h-136
q-29 0 -37.5 -10t-8.5 -25v-468q0 -31 14.5 -46.5t53.5 -15.5h114q103 0 183 40.5t117 106t36 144.5q-3 82 -37.5 133t-85 82.5t-110 45t-103.5 13.5z" />
    <glyph glyph-name="uni0413" unicode="&#x413;" 
d="M1515 1278l16 -336q0 -19 -14 -21t-24 16q-6 9 -11 33t-21 69t-36 79.5t-47.5 57t-72.5 33t-107 10.5l-344 -1v-953q0 -133 30.5 -170.5t67 -49.5t90.5 -17l77 -8q13 -2 14 -19.5t-24 -17.5h-574q-26 0 -24.5 17t21.5 20l63 8q47 6 73.5 30t36.5 73.5t10 133.5v776
q0 70 -20 114.5t-45.5 57.5t-67.5 19l-41 5q-30 3 -30.5 22t13.5 19h991z" />
    <glyph glyph-name="uni0414" unicode="&#x414;" 
d="M383 31q26 -1 59.5 0.5t91 25t91 71t41.5 95t8 92.5v679q0 60 -3 103t-29.5 73.5t-81.5 41.5l-62 12q-21 3 -26 22t26 19h1102q22 0 23.5 -19.5t-18.5 -21.5l-24 -3q-59 -8 -83 -15t-46 -30t-28 -48.5t-5 -108.5l2 -783q0 -101 23 -137t93 -54q41 -12 85 -11h32v-368
q0 -28 -20 -25.5t-27 19t-14.5 51.5t-26 86t-48 95.5t-72 66.5t-111.5 22l-589 -1q-123 -1 -182 -42t-82 -90t-34.5 -104.5t-20.5 -82t-26.5 -26t-17.5 28.5v367zM692 44h407q86 0 125.5 14t53 47.5t13.5 89.5v785q0 78 -5 124.5t-27.5 72t-114.5 25.5h-207q-82 0 -108 -28
t-32.5 -61.5t-6.5 -126.5l-2 -678q-1 -67 -11 -123t-32 -79l-53 -62v0z" />
    <glyph glyph-name="uni0415" unicode="&#x415;" 
d="M1455 1297l24 -295q1 -21 -14.5 -22t-25.5 22q-2 3 -13.5 42.5t-30.5 75t-44 58.5t-62.5 35.5t-74.5 12.5h-406v-511h290q33 0 82 9.5t77.5 28t46 48.5t21 71t9.5 53.5t22.5 13t16.5 -26.5v-437q0 -28 -14.5 -30.5t-24.5 20.5q-3 5 -4.5 23.5t-7 37t-18 39.5t-37 38.5
t-64 26.5t-105.5 9h-290v-442q0 -84 24 -104t72 -20l344 -2q45 -1 84.5 9.5t69.5 26.5t56 42t50.5 64t36.5 75.5t26 51t26 8.5t5 -31l-98 -324h-1012q-20 0 -18 17.5t18 19.5l51 6q49 5 79.5 24t38.5 58t8 131v846q0 59 -28.5 100.5t-89.5 54.5l-43 6l-33 5q-12 1 -14 18.5
t17 17.5h977z" />
    <glyph glyph-name="uni0416" unicode="&#x416;" 
d="M737 693l-367 398q-45 48 -76 72t-71.5 43.5t-73.5 28.5l-41 11q-17 4 -17.5 21.5t17.5 17.5h465q22 0 23.5 -20.5t-22.5 -23.5l-40 -6q-23 -4 -47.5 -18t-30 -38t14 -57t47.5 -62l280 -306q29 -32 52 -49.5t41 -15.5h33v371q0 61 -12.5 97t-46 56.5t-70.5 27.5l-48 8
q-29 4 -24.5 22.5t28.5 18.5h470q32 0 32.5 -20.5t-18.5 -23.5l-41 -8q-41 -8 -74 -32t-43.5 -59t-10.5 -87v-371q23 -1 44.5 0.5t45 13t68.5 60.5l287 311q15 16 37.5 54.5t22.5 54.5q-1 14 -15.5 35t-44.5 28l-39 8q-29 5 -31 24.5t34 19.5h440q25 0 30 -18t-33 -29
l-52 -16q-34 -11 -71 -30t-76 -57l-77 -85l-350 -367l421 -503q20 -25 51 -54.5t62.5 -49t58.5 -30t57 -16.5t46.5 -15t14 -22.5t-22.5 -13.5h-496q-23 0 -22.5 14.5t14.5 19.5l30 9l39 10q26 7 35.5 18.5t10 29.5t-24.5 53q-38 50 -54 70t-147 178t-179 201t-60 43l-54 3
v-358q0 -81 11.5 -128t41 -78.5t86.5 -39.5l33 -5q25 -4 26.5 -25t-21.5 -21h-475q-40 0 -38.5 18t17.5 22l43 9q40 8 75 26t47 83t12 139v358q-21 1 -40.5 -2t-64.5 -56l-198 -222q-56 -65 -105 -128.5t-71.5 -96.5t-20.5 -50q2 -33 39 -49l63 -11l41 -8q23 -5 20.5 -23
t-18.5 -17l-513 1q-18 0 -14.5 17t14.5 19l38 6q53 8 91.5 31t78.5 62t63 68z" />
    <glyph glyph-name="uni0417" unicode="&#x417;" 
d="M1179 690q70 -19 133.5 -46t120 -106t52.5 -192q-4 -104 -56.5 -177.5t-140 -122t-209 -65.5t-216.5 -3q-130 18 -207 75.5t-109.5 113t-46.5 92.5t-12.5 48.5t12 16t27.5 -7.5q18 -14 43 -63t85 -110.5t203 -83.5q131 -21 252 29.5t166.5 129.5t47.5 169t-54 158
q-59 69 -143 84.5t-143 19t-75 5.5l-32 3q-18 1 -30 7.5t-11.5 26t27.5 29.5q8 3 44 2.5t38 0.5q44 1 94 11t113 42t95 87.5t30 142.5q-3 76 -41 146t-118 100.5t-156 27.5q-103 -5 -172.5 -49.5t-97.5 -92t-51.5 -102t-35 -85t-30.5 -29.5t-17 27l24 379q1 24 16.5 24.5
t27.5 -20.5q15 -30 23.5 -39.5t36.5 -12.5q17 -3 32 1.5t81 28t116 32t103 8.5q70 -1 147.5 -22t139 -71.5t94.5 -111.5t36.5 -132.5t-21.5 -126.5q-24 -51 -82 -103t-93 -66l-60 -27v0z" />
    <glyph glyph-name="uni0418" unicode="&#x418;" 
d="M1376 966l-710 -780q3 -24 8.5 -47.5t28 -53.5t51 -42.5t63.5 -19.5l37 -8q27 -7 23.5 -25t-26.5 -18h-506q-27 0 -29.5 19t29.5 24l55 8q21 3 54.5 22.5t51.5 47.5t22.5 65t4.5 72v805q0 28 -11 70.5t-32.5 72t-50.5 42t-64 17.5l-42 5q-25 3 -24 23.5t24 20.5h513
q26 0 24 -21t-21 -23l-37 -5q-32 -5 -60.5 -16.5t-48 -35t-29.5 -67t-9 -83.5l1 -737l710 791v11q0 25 -12 53t-31.5 46.5t-45 28.5t-71.5 17l-41 6q-28 4 -26.5 23.5t26.5 19.5h514q28 0 25.5 -20t-22.5 -23l-36 -6q-38 -7 -63.5 -17t-46.5 -35t-29.5 -64.5t-8.5 -85.5
v-799q0 -36 6.5 -74.5t29.5 -70.5t51.5 -45t65.5 -21l36 -8q29 -7 25 -24.5t-27 -17.5h-509q-27 0 -28.5 18.5t28.5 23.5l55 8q23 3 56 23t51 48t22 64t5 72z" />
    <glyph glyph-name="uni0419" unicode="&#x419;" 
d="M1038 1377q-142 -5 -187.5 47t-65 87t-18.5 55t21.5 26.5t42.5 -11.5l32 -41q20 -24 67 -41t108 -14q48 1 97.5 18t72 51t40 46.5t29 1t12 -30t-18.5 -50.5q-33 -54 -85.5 -98t-146.5 -46zM1386 964l-710 -780q3 -25 8.5 -48t28.5 -53.5t50.5 -43t63.5 -19.5l37 -8
q27 -7 23.5 -25t-26.5 -18h-506q-28 0 -29.5 19t29.5 24l55 8q21 3 54.5 22.5t51.5 47.5t22.5 65t4.5 72v806q0 28 -11 70.5t-33 72.5t-49.5 41.5t-64.5 17.5l-42 6q-25 3 -24 22.5t24 19.5h513q26 0 24 -19.5t-21 -22.5l-37 -6q-35 -6 -62 -17t-46.5 -35.5t-29.5 -65.5
t-9 -84l1 -738l710 792v11q0 24 -12 53.5t-30.5 46.5t-50 29.5t-67.5 16.5l-41 4q-29 2 -26.5 23t26.5 21h514q26 0 24.5 -21t-21.5 -23l-36 -4q-31 -4 -60.5 -17t-50 -37t-29 -63.5t-8.5 -85.5v-800q0 -36 6.5 -74.5t29.5 -71t50 -44.5t67 -20l36 -8q30 -7 25.5 -24.5
t-27.5 -17.5h-509q-26 0 -28.5 18.5t28.5 23.5l55 8q24 3 56.5 22t50.5 48t22 64.5t5 72.5z" />
    <glyph glyph-name="uni041A" unicode="&#x41a;" 
d="M700 691h82q31 0 70 24t88 77l103 118l145 162q36 43 54.5 76t16.5 47t-11.5 27t-44.5 20l-56 11q-25 4 -24.5 20t27.5 16l460 -1q17 -1 20 -14t-20 -18l-48 -11q-48 -11 -78.5 -25.5t-61 -40.5t-76.5 -73l-125 -131l-158 -164l-77 -82l446 -522q38 -46 69 -76
t67.5 -55.5t66.5 -31.5l77 -16q23 -5 23.5 -21.5t-20.5 -16.5h-493q-32 0 -27.5 15.5t24.5 18.5l45 6q43 5 58 28t7 46t-34 55l-60 71q-60 70 -131.5 148.5t-122 140t-88.5 91t-76 29.5h-117l-2 -398q-1 -66 13.5 -108t44.5 -61.5t68 -30.5l57 -17q26 -8 23.5 -24t-28.5 -16
h-483q-34 0 -33.5 15.5t30.5 24.5l57 17q34 10 63.5 35.5t39 69.5t9.5 94v802q0 45 -14.5 89t-46 66t-81.5 36l-41 11q-22 5 -21 23t24 18h507q17 0 20 -16.5t-21 -21.5l-58 -14q-39 -10 -72 -33.5t-45.5 -65t-11.5 -92.5z" />
    <glyph glyph-name="uni041B" unicode="&#x41b;" 
d="M718 342v655q0 70 -12 115t-40.5 74t-75.5 40l-57 13q-25 5 -23 21.5t23 16.5h1072q32 0 27 -19t-27 -22l-60 -10q-54 -9 -77 -37t-32 -64.5t-9 -103.5v-698q0 -79 12.5 -143.5t40 -95t82.5 -46.5l54 -16q25 -8 21.5 -23.5t-21.5 -15.5h-505q-24 0 -24.5 16.5t19.5 20.5
l41 8q53 10 91.5 40.5t46 92t7.5 159.5v701q0 58 -12 102t-44.5 66.5t-82.5 22.5l-158 -1q-74 -1 -118 -29.5t-53.5 -70.5t-9.5 -114v-661q0 -33 -6 -91.5t-17.5 -109.5t-44.5 -97.5t-99.5 -74t-141.5 -21.5t-114.5 44.5t-38.5 95.5q1 48 33.5 81t80.5 34.5t78 -26.5
q21 -21 27 -51l6 -57q3 -17 17 -30t48 0q27 10 41 39t21.5 94t10.5 99.5t3 76.5z" />
    <glyph glyph-name="uni041C" unicode="&#x41c;" 
d="M515 1281l499 -1042l508 1051l303 -1q25 -1 26.5 -16.5t-24.5 -21.5l-52 -12q-59 -14 -91 -53t-31 -115l1 -806q0 -71 13 -117.5t48 -76.5t77 -37l47 -9q21 -5 20 -22.5t-20 -17.5h-502q-23 0 -22.5 18.5t16.5 21.5l58 11q57 10 84 39t34.5 71.5t7.5 118.5v833
l-542 -1099l-509 1066v-838q0 -81 25 -125.5t60.5 -59.5t66.5 -20l43 -8q18 -4 15.5 -20.5t-21.5 -16.5h-430q-28 0 -26 16t20 21l45 12l53 13q40 16 59 54.5t19 133.5l-1 811q-1 88 -35.5 131t-101.5 60l-46 11q-16 3 -16 22t19 19h303z" />
    <glyph glyph-name="uni041D" unicode="&#x41d;" 
d="M1375 669l-1 373q-1 28 -11.5 70t-32 70.5t-51.5 41.5t-63 17l-42 5q-27 3 -25.5 23t25.5 20h513q27 0 25 -20t-23 -23l-35 -5q-34 -5 -61.5 -16.5t-48.5 -36.5t-29.5 -62.5t-8.5 -83.5v-789q0 -31 7.5 -71.5t30 -72t50 -43.5t65.5 -20l36 -8q28 -7 24 -24.5t-27 -17.5
h-506q-28 0 -29.5 18.5t29.5 23.5l54 8q22 3 55.5 22t51.5 47t22 64t5 71l1 359h-707l-1 -366q-1 -32 6 -73t28.5 -70.5t53 -44t63.5 -20.5l37 -8q27 -6 24 -24t-27 -18h-504q-28 0 -29.5 18.5t29.5 23.5l54 8q21 3 56 23.5t51.5 47t21 64t4.5 69.5v794q0 32 -9.5 70.5
t-33.5 70t-48.5 41.5t-66.5 17l-41 6q-25 3 -24 22.5t24 19.5h510q26 0 24 -19.5t-21 -22.5l-36 -6q-38 -7 -63 -16.5t-45.5 -34t-29.5 -65t-8 -83.5l1 -364h707z" />
    <glyph glyph-name="uni041E" unicode="&#x41e;" 
d="M407 715q16 198 98.5 337t219 210t287.5 73q167 1 298 -72t216 -208.5t97 -326.5t-43 -345q-50 -139 -138.5 -231.5t-197 -137.5t-232.5 -45q-142 -1 -244.5 47.5t-192 142.5t-136 234t-32.5 322zM565 623q3 -137 35 -250.5t140 -226.5t272.5 -113.5t294.5 134.5
q84 88 117 202.5t37 239t-9 215.5q-16 105 -60 198.5t-139.5 170.5t-240.5 76q-136 -2 -228 -73.5t-141 -167.5t-65 -197t-13 -208z" />
    <glyph glyph-name="uni041F" unicode="&#x41f;" 
d="M535 260v750q0 70 -12 115t-44 68.5t-83 38.5l-46 13q-21 6 -19 23.5t24 17.5h1329q24 0 24.5 -17.5t-18.5 -20.5l-44 -8q-55 -10 -86.5 -40t-36.5 -68t-5 -122v-747q0 -73 9.5 -112t37.5 -67t73 -42l52 -17q23 -8 19 -25t-22 -17h-489q-28 0 -25.5 17.5t22.5 21.5l41 8
q53 10 85.5 47t43.5 81t11 105v747q0 58 -8 96.5t-33 64.5t-69 36.5t-111 10.5h-247q-71 0 -118 -9t-78 -41.5t-37 -65.5t-6 -92v-750q0 -59 9 -108t33 -75t75 -41l63 -19q24 -8 21.5 -25.5t-29.5 -17.5h-486q-19 0 -19.5 16.5t14.5 20.5l43 9q44 9 83 33.5t49 75t10 131.5z
" />
    <glyph glyph-name="uni0420" unicode="&#x420;" 
d="M862 623v-358q0 -68 16 -110.5t45.5 -68.5t82.5 -36l55 -11q20 -5 18.5 -22.5t-21.5 -17.5h-491q-34 0 -33.5 19t25.5 24l32 6q39 7 67.5 19.5t46 55.5t17.5 142v786q0 57 -12 94.5t-39.5 61t-68.5 35.5l-62 17q-28 7 -27 25t21 18h551q84 0 133.5 -4.5t128 -38
t125.5 -106t49.5 -182t-46.5 -205t-146.5 -136t-240.5 -37.5q-119 1 -171 16l-55 14v0zM862 1199v-494q0 -25 64.5 -37t134.5 -9q87 3 156 32.5t107 101t37 168.5q-1 86 -36 149.5t-119 94.5t-194 27q-37 -2 -93.5 -8.5t-56.5 -24.5z" />
    <glyph glyph-name="uni0421" unicode="&#x421;" 
d="M1552 1335v-439q0 -23 -16 -27.5t-27 16.5q-4 6 -7 26.5t-13.5 49.5t-31 74.5t-47 88.5t-78 81.5t-145.5 53.5q-98 14 -197 -12.5t-183.5 -106t-121 -172t-46 -185t-6.5 -160.5q5 -144 47.5 -249.5t106.5 -175.5t150.5 -111t211.5 -35q124 5 186 44.5t107 86.5t72.5 94.5
t41 54t24 3t10.5 -28.5q-1 -17 -29.5 -64.5t-82 -113t-168 -121.5t-259.5 -49q-147 6 -245 64.5t-161.5 133.5t-106.5 166t-58 197.5t-1 222.5q15 127 66.5 241t140.5 195t178 119t214 38q61 -1 118.5 -12t110.5 -34l72 -33q36 -14 57 -8q23 6 41.5 32.5t24.5 51.5t28 35
t22 -32z" />
    <glyph glyph-name="uni0422" unicode="&#x422;" 
d="M1541 1296l33 -295q1 -14 -15.5 -22.5t-23.5 19.5l-18 68q-9 33 -34 67.5t-72.5 53.5t-137.5 19h-185v-950q0 -67 14 -114t49 -73t95 -39l47 -11q24 -6 23.5 -23t-21.5 -17h-532q-35 0 -30 18t25 22l44 8q52 9 86 36.5t47.5 74.5t13.5 118v950h-221q-62 0 -110 -22
t-71 -59.5t-32 -74.5l-16 -63q-5 -19 -22.5 -16.5t-16.5 27.5l19 298h1062z" />
    <glyph glyph-name="uni0423" unicode="&#x423;" 
d="M1090 524l251 562q33 74 32.5 93t-17 34t-48.5 21l-46 8q-25 4 -25.5 21t25.5 17h349q29 0 30.5 -18.5t-21.5 -22.5l-58 -11q-26 -5 -54.5 -24.5t-46.5 -47t-36.5 -75.5t-75.5 -177l-147 -344l-186 -393q-25 -53 -56 -104.5t-75 -81t-137.5 -37.5t-146.5 37.5t-54.5 97.5
t28.5 83t79 31.5t82 -26.5q16 -14 40 -56.5t44.5 -51.5t45.5 6q16 9 30.5 37t40.5 86l71 162l-348 629l-76 140q-25 43 -49 66t-67 37l-38 12q-26 8 -27.5 25.5t27.5 17.5h434q29 0 32 -16.5t-21 -21.5l-44 -9q-57 -12 -71 -20.5t-20.5 -29.5t75.5 -165z" />
    <glyph glyph-name="uni0424" unicode="&#x424;" 
d="M931 1109q-7 19 -15.5 38.5t-25.5 36.5t-43 29.5t-50 18.5l-47 10q-15 3 -15.5 19t15.5 16h503q11 0 14 -15t-14 -18l-60 -12q-41 -9 -69.5 -32.5t-34.5 -47.5l-13 -41q56 -1 131 -4t217.5 -35.5t239.5 -136.5t91 -270.5t-84 -265t-201.5 -142t-270.5 -55.5l-123 -11
q1 -43 10.5 -72.5t43.5 -56t79 -35.5l47 -10q21 -5 18.5 -21t-29.5 -16h-475q-28 0 -27.5 16.5t16.5 20.5l51 12q25 5 66 30.5t47 80.5l8 51q-51 3 -119.5 9t-161.5 26.5t-188.5 76.5t-145.5 174t-20.5 262t100 218.5t201.5 109.5t249 39l85 3v0zM931 1065q-33 -2 -109 -7.5
t-179.5 -50t-150.5 -120.5t-52 -212.5t24 -204.5q36 -88 138.5 -154t284.5 -73l44 -2v824zM1076 238q74 6 152 16t172.5 54.5t151.5 131t50 240.5q-6 117 -57.5 200t-163 128.5t-251.5 53.5l-54 3v-827z" />
    <glyph glyph-name="uni0425" unicode="&#x425;" 
d="M948 620l-270 421q-38 58 -62 89.5t-43 47.5t-47 28t-57 19l-50 11q-31 6 -29.5 26t21.5 20h506q21 0 23.5 -20.5t-21.5 -25.5l-53 -11q-24 -5 -43.5 -20t-21.5 -38t10 -47.5t38 -62.5l202 -309l243 315q27 35 41.5 60.5t13.5 50.5q-2 24 -18.5 38.5t-46.5 18.5l-46 5
q-31 3 -28 25.5t19 22.5h427q28 0 29.5 -23t-24.5 -25l-46 -5q-26 -3 -65.5 -18.5t-73 -46t-65.5 -71.5l-318 -412l302 -460q31 -49 61 -85t71.5 -62.5t79.5 -33.5l63 -13q23 -5 23.5 -26.5t-26.5 -21.5h-533q-25 0 -27 23t25 27l38 5q52 6 74 18.5t25 38.5t-23 65.5
t-27 42.5l-225 352l-268 -356l-31 -45q-27 -38 -26 -54q0 -14 13.5 -38t43.5 -27l58 -7q29 -4 24.5 -26t-33.5 -22h-412q-33 0 -30.5 22.5t19.5 25.5l54 7q29 3 69.5 23t77.5 56.5t95 112.5z" />
    <glyph glyph-name="uni0426" unicode="&#x426;" 
d="M1724 45l1 -378q0 -24 -20 -23.5t-28 11t-11 25t-20 79.5t-31.5 112t-52 76.5t-98.5 34.5t-132 5h-1001q-29 0 -31.5 17.5t23.5 22.5l41 8q18 3 51.5 17.5t55.5 46t26.5 64t4.5 142.5v745q0 56 -19.5 100.5t-53.5 62t-74 25.5l-38 7q-27 5 -24.5 24t27.5 19h499
q28 0 30.5 -19t-25.5 -22l-36 -5q-45 -7 -74 -26t-48 -65t-19 -101v-745q0 -96 7 -141t44.5 -74.5t139.5 -29.5h333q95 0 133 37.5t44 93.5t6 139v723q0 58 -11.5 94t-44 60.5t-75.5 34.5l-49 11q-31 6 -30.5 25.5t27.5 19.5h497q24 0 27 -20t-19 -23l-32 -5
q-53 -9 -90 -31.5t-49 -61.5t-12 -104v-723q0 -55 6.5 -113.5t38 -116t94.5 -52.5l92 -3v0z" />
    <glyph glyph-name="uni0427" unicode="&#x427;" 
d="M1263 701l2 347q0 51 -10 84t-38 63t-75 44l-57 16q-24 6 -24.5 23.5t27.5 17.5h480q25 0 26.5 -18t-29.5 -25l-44 -11q-44 -11 -72.5 -40.5t-36.5 -63.5t-8 -93v-737q0 -86 11 -138t46 -86t93 -49l41 -11q17 -5 11.5 -21t-22.5 -16h-492q-23 0 -26.5 15.5t16.5 21.5
l38 11q36 10 66.5 28.5t50 58.5t24 84t4.5 105v325q-86 -28 -181 -57.5t-207 -51t-192 -6.5q-93 16 -133 61.5t-52.5 111t-12.5 141.5v207q0 55 -13.5 101t-40.5 66t-74 33l-41 11q-17 4 -16 20t15 17l478 1q17 0 19 -14.5t-21 -26.5l-77 -23q-54 -23 -73 -75.5t-19 -111.5
v-202q0 -68 24 -123.5t83.5 -80t135.5 -20.5q64 3 171 26.5t153 38.5l72 22v0z" />
    <glyph glyph-name="uni0428" unicode="&#x428;" 
d="M136 20l33 5q26 4 60.5 19t52 47t23.5 79t6 95v759q0 82 -20.5 117t-52.5 60.5t-67 32.5l-41 8q-22 4 -21 21.5t24 17.5h461q31 0 30.5 -17t-22.5 -22l-45 -10q-38 -9 -62.5 -36.5t-33 -62.5t-8.5 -107l-1 -758q-1 -67 8 -107.5t47 -78.5t106 -38h191q78 0 113 35
t40.5 86.5t5.5 99.5v780q0 48 -11 87.5t-40 68.5t-67 36l-49 8q-18 2 -20 20t25 18h463q9 0 7.5 -16t-13.5 -19l-44 -11q-44 -11 -68 -24t-35.5 -45t-11.5 -123v-777q0 -93 7 -122.5t30.5 -52.5t62.5 -36t83 -13h161q67 0 106 32t48.5 79t9.5 99v789q0 49 -10 87.5
t-33.5 65.5t-62.5 38l-41 11q-32 8 -31.5 26t36.5 18h440q34 0 32 -17.5t-20 -21.5l-45 -10q-38 -9 -69.5 -31.5t-44 -69t-12.5 -96.5v-789q0 -57 10 -97.5t43 -78.5t86 -46l32 -5q20 -4 19.5 -23t-26.5 -19h-1771q-21 0 -24 15.5t21 19.5z" />
    <glyph glyph-name="uni0429" unicode="&#x429;" 
d="M120 18l33 6q29 5 61.5 19.5t49.5 46.5t23 81t6 96v766q0 84 -19.5 118t-52 62t-65.5 34l-41 7q-23 4 -21 21.5t24 17.5h456q29 0 29.5 -17.5t-20.5 -21.5l-47 -11q-37 -9 -61 -36.5t-32.5 -62.5t-8.5 -108v-766q0 -73 7.5 -111t46 -76.5t105.5 -38.5h189q78 0 112 35
t39.5 87.5t5.5 100.5v789q0 50 -10 89t-39 67t-67 36l-49 9q-19 3 -20 20.5t25 17.5h458q9 0 7.5 -16.5t-13.5 -19.5l-44 -11q-45 -12 -67.5 -23.5t-34 -45t-11.5 -123.5v-786q0 -94 7 -124t30.5 -53.5t60 -36t83.5 -12.5h159q65 0 104 32t48.5 79t9.5 101v797
q0 44 -10.5 85.5t-33 69.5t-62.5 39l-40 10q-31 7 -29.5 25.5t35.5 18.5h434q34 0 32 -17.5t-18 -21.5l-45 -11q-41 -10 -71.5 -31t-42 -67.5t-11.5 -99.5v-797q0 -62 9.5 -102t45 -77t72.5 -37l109 -11v-362q0 -29 -22 -24.5t-31.5 37.5t-22 101t-36 114t-65.5 66.5
t-78.5 21.5t-158.5 1h-1413q-20 0 -22.5 15t19.5 19z" />
    <glyph glyph-name="uni042A" unicode="&#x42a;" 
d="M370 1279l753 -2q23 -1 24.5 -19t-29.5 -22l-47 -7q-50 -8 -74 -31t-31.5 -48.5t-7.5 -73.5v-360h168q77 0 143 -6.5t161 -29t151 -71.5t77 -123t21.5 -151.5t-32.5 -148.5q-33 -70 -105 -125.5t-186 -66.5t-200 -11h-524q-37 0 -30.5 17.5t20.5 19.5l49 7q74 10 101 47
t35 82t8 91v908q0 33 -12 46.5t-56 13.5h-96q-82 0 -129 -22.5t-71 -54t-31.5 -59.5t-12 -55.5t-12.5 -43.5t-21.5 -11.5t-13.5 25.5zM956 641l2 -485q0 -56 8.5 -72t21.5 -24.5t53 -7.5l131 1q77 0 172 28t130.5 97t38.5 130.5t-2 95.5q-12 77 -63 135t-153.5 80.5
t-176.5 22.5z" />
    <glyph glyph-name="uni042B" unicode="&#x42b;" 
d="M1353 17l38 7q56 10 90.5 47.5t42.5 97.5t8 112v775q0 62 -16.5 95t-52.5 55t-75 30l-41 8q-23 4 -24.5 21.5t18.5 18.5l508 1q26 0 25 -18t-25 -23l-38 -8q-44 -10 -74.5 -28.5t-47.5 -55t-17 -93.5v-778q0 -86 13 -138.5t55 -80.5t74 -35l44 -10q12 -3 12.5 -20.5
t-21.5 -17.5h-496q-17 0 -19.5 17t19.5 21zM511 713h173q85 0 148 -6t160 -28.5t152.5 -71.5t78.5 -126t24 -152t-34 -148q-34 -71 -106.5 -125t-193.5 -67.5t-199 -13.5h-533q-37 0 -30.5 17.5t19.5 20.5l50 8q77 12 103 47t35.5 84.5t9.5 89.5v833q0 86 -38.5 117.5
t-79.5 40.5l-51 11q-14 2 -15 19t17 17l480 -2q22 -1 23.5 -18t-29.5 -22l-47 -8q-55 -10 -77 -32t-31 -51t-9 -71v-363zM510 638l1 -488q0 -53 9.5 -70.5t23.5 -26.5t53 -8l132 2q82 1 176 28t131.5 98.5t40.5 130.5t-3 96q-14 77 -65 135.5t-154 81t-180 22.5z" />
    <glyph glyph-name="uni042C" unicode="&#x42c;" 
d="M846 710h173q79 0 151 -6t150.5 -27.5t140.5 -73.5t86.5 -120t25 -158t-24.5 -148q-30 -68 -106 -122.5t-195.5 -68.5t-197.5 -14h-533q-37 0 -30.5 17.5t19.5 20.5l50 8q77 12 103 47t35.5 84.5t9.5 89.5v833q0 87 -38 117.5t-80 40.5l-51 12q-13 3 -14.5 19t16.5 16
l480 -2q22 -1 23.5 -18.5t-29.5 -22.5l-47 -8q-56 -10 -77.5 -31.5t-30.5 -50.5t-9 -72v-362zM845 636l1 -489q0 -52 9.5 -70.5t22.5 -27t54 -7.5l132 2q82 1 176 28t131.5 98.5t40.5 130.5t-3 96q-14 77 -65 135.5t-153.5 81t-180.5 22.5h-165z" />
    <glyph glyph-name="uni042D" unicode="&#x42d;" 
d="M1413 663h-403q-44 0 -83 -9t-70 -36t-37 -55t-7.5 -48t-10 -38t-22.5 -16t-14 41v402q0 28 14 25.5t20 -14.5t10.5 -49t23.5 -72.5t46.5 -51.5t127.5 -16h402q-7 54 -16.5 114t-36.5 135t-91.5 156.5t-147 113t-181.5 32.5q-122 0 -192 -33t-107.5 -75t-60.5 -92.5
t-34.5 -78.5t-24.5 -63t-29.5 -34t-14.5 17l35 415q1 17 15 17.5t23 -12.5q0 -1 10.5 -31t33.5 -38q15 -6 37.5 0.5t84.5 28t126.5 34t147.5 9.5q117 -6 220.5 -48.5t189.5 -134.5t130 -218t43 -277q-2 -152 -43.5 -262t-110.5 -199t-161 -142.5t-194 -67.5t-163 -10
q-104 5 -191.5 42t-134 81.5t-84 102.5t-50.5 86.5t-8 42t16.5 15t26.5 -10.5q14 -14 42 -60.5t72.5 -91t112 -75.5t172.5 -34q142 -5 238 42t159.5 120.5t103.5 175.5t40 210v35v0z" />
    <glyph glyph-name="uni042E" unicode="&#x42e;" 
d="M401 673h362q0 26 2 69.5t30.5 138t116 213.5t220.5 165.5t243 46.5q140 -1 267 -58t211 -167.5t107 -243t12 -252.5q-15 -160 -71.5 -276.5t-140 -194.5t-179 -110.5t-206.5 -33.5q-128 -3 -244 37.5t-212 153.5t-119.5 205.5t-29.5 171.5l-7 77l-362 -1v-326
q0 -72 10.5 -118t44.5 -82t76 -46l50 -13q23 -6 20.5 -21.5t-26.5 -15.5h-489q-34 0 -30 16t25 21l41 8q56 11 89.5 49t41 84t7.5 118v742q0 63 -17.5 107t-51 67t-75.5 31l-46 8q-20 3 -19 19t21 16h492q30 0 33.5 -16.5t-22.5 -21.5l-39 -8q-35 -8 -70.5 -27t-50.5 -58.5
t-15 -119.5v-354zM924 601q3 -117 41 -255.5t117.5 -208.5t149 -90.5t143.5 -17.5q83 3 182 45.5t165.5 167t82.5 259t4 259.5q-12 118 -58 234t-147 180.5t-229 65.5q-125 0 -220.5 -57.5t-148 -168t-69.5 -217t-13 -196.5z" />
    <glyph glyph-name="uni042F" unicode="&#x42f;" 
d="M895 610q-63 15 -117.5 33t-98.5 54t-66 88.5t-18 130.5q5 109 53.5 179t141 106t201 43t192.5 7h422q28 0 27.5 -16.5t-27.5 -21.5l-41 -8q-27 -6 -52.5 -15t-46 -29.5t-29 -49.5t-8.5 -67v-758q0 -53 3.5 -102t28.5 -92t104 -60l49 -11q17 -4 16.5 -20.5t-22.5 -16.5
h-498q-29 0 -28.5 15.5t22.5 21.5l47 11q44 10 71.5 28t45 51t21 75.5t3.5 99.5l-1 310l-249 1l-414 -617l-277 1q-26 0 -26.5 17.5t26.5 22.5l33 5q45 6 85 27t80.5 62t68.5 83zM1291 659v407q0 62 -4 75t-22 29t-58 16h-112q-59 0 -138 -15t-133.5 -80t-65 -143.5
t22.5 -140.5q32 -63 87 -92t127.5 -42.5t140.5 -13.5h155z" />
    <glyph glyph-name="uni0430" unicode="&#x430;" 
d="M1111 567q0 63 1 110.5t-6 75.5q-11 36 -36 59.5t-68 32.5q-47 8 -87.5 -4t-70.5 -41.5t-20 -76.5l14 -39q6 -20 5 -38q-3 -33 -25.5 -54.5t-56.5 -22t-58.5 25t-26 74t19.5 89.5q17 33 60.5 72.5t108 61.5t142.5 18q64 -5 112.5 -27.5t70 -54t29 -74t8.5 -97.5l2 -456
q0 -20 2 -58.5t9.5 -51.5t26.5 -15q12 -2 29.5 6.5t34 24t28 27.5t21 17.5t17 0t6.5 -18.5q-1 -8 -12.5 -25.5t-34 -42.5t-40 -39.5t-48 -31t-67 -17.5t-62.5 38q-12 17 -16 44l-9 52q-25 -30 -47.5 -53.5t-71.5 -56.5t-142.5 -33.5t-155.5 63t-63 156t54.5 161t155 117
t180.5 74.5l87 28v0zM1111 505q-46 -14 -101 -30.5t-126.5 -54t-104.5 -91.5t-30 -117q2 -66 39 -106.5t117.5 -44.5t156.5 56q35 27 42 47.5t7 58.5v282z" />
    <glyph glyph-name="uni0431" unicode="&#x431;" 
d="M616 620q18 44 33.5 72.5t61 81.5t100 83t135.5 38q92 9 186.5 -22t160.5 -121t84.5 -186t15.5 -170q-6 -121 -55.5 -212t-147 -148.5t-200.5 -64.5q-120 -9 -207.5 39.5t-142 126t-74 178t-18.5 240.5q1 109 11.5 185t40 163.5t88 154.5t134.5 103t148 51l102 17
q51 8 96 21.5t76.5 34t43.5 36t29 40.5t26.5 23.5t13.5 -11.5t1 -25q-6 -28 -17 -59t-35.5 -65t-66 -63t-78.5 -44t-86 -25l-162 -26q-72 -14 -114.5 -37t-73.5 -57t-53.5 -77.5t-37 -115t-16.5 -115t-2 -44.5zM973 42q50 -3 119.5 37.5t107 131t35.5 212.5q-2 86 -26.5 187
t-87.5 159t-144.5 59.5t-146.5 -52.5q-73 -61 -95 -156.5t-21 -179.5q0 -85 21.5 -180t92 -155t145.5 -63z" />
    <glyph glyph-name="uni0432" unicode="&#x432;" 
d="M1160 420q60 -18 110 -36t93 -62t45 -107t-30 -114q-30 -46 -81 -75t-120.5 -37t-117.5 -8h-412q-32 0 -33.5 17t22.5 21l38 5q45 5 68.5 31.5t24.5 102.5l1 491q0 55 -8.5 79t-24.5 40t-63 26l-50 10q-14 2 -20 19.5t19 17.5h350q52 0 161.5 -10.5t166 -73.5t54.5 -149
q-2 -44 -21 -79t-62.5 -63t-71.5 -35l-38 -11v0zM885 117q-6 -44 6.5 -61.5t58.5 -17.5h68q49 0 111.5 20.5t94 62t31.5 94.5q-1 36 -22.5 79.5t-81 72t-112.5 28.5h-109q-27 0 -36 -11t-9 -54v-213zM885 715v-227q0 -16 8 -25.5t37 -9.5h71q60 0 110 23t76.5 57.5
t25.5 98.5q-2 64 -29 93t-67.5 44t-92.5 16l-82 1q-29 0 -43 -15t-14 -56z" />
    <glyph glyph-name="uni0433" unicode="&#x433;" 
d="M1422 850l16 -220q1 -22 -12.5 -25t-23.5 13q-5 6 -10.5 24t-12 35.5t-21 40t-40 39t-61.5 23.5t-97 7h-248v-552q0 -90 10 -127.5t37 -53t84 -21.5l65 -8q27 -4 25 -20.5t-25 -16.5h-422q-24 0 -25.5 14.5t14.5 19.5l38 11q42 12 59 29.5t21 51.5t4 121v436
q0 83 -18 103t-52 29l-47 11q-22 5 -27 19t16 15z" />
    <glyph glyph-name="uni0434" unicode="&#x434;" 
d="M542 -10q16 -1 41.5 0t70.5 20t65.5 56.5t25 78.5t4.5 109v423q0 48 -6 74t-23.5 45t-57.5 27l-36 7q-21 3 -23 21t20 18h808q28 0 29.5 -17.5t-18.5 -21.5l-33 -7q-35 -8 -55 -21.5t-30 -47.5t-10 -77v-480q0 -84 13 -122t37.5 -56.5t90.5 -22.5l31 -2v-279
q0 -25 -15 -22.5t-21 16t-17.5 53.5t-31 84t-54 68.5t-113.5 24.5h-398q-114 0 -155.5 -29.5t-60.5 -71t-25.5 -81.5t-15.5 -58.5t-23 -16.5t-14 17v291zM761 -5l332 1q68 0 92.5 27.5t24.5 96.5v557q0 84 -25.5 108t-102.5 24h-131q-55 0 -75.5 -18.5t-28.5 -47t-8 -69.5
v-420l-3 -95q-2 -81 -10 -88l-65 -76v0z" />
    <glyph glyph-name="uni0435" unicode="&#x435;" 
d="M1392 528l-590 -1q-1 -39 0 -74.5t13 -99.5t54.5 -131.5t104.5 -99.5t147 -31q66 0 106 18.5t68.5 50t45.5 71.5t27.5 71.5t21 47t19.5 14t12 -18.5t2 -30q-3 -21 -13 -57.5t-29 -81t-53 -90t-99 -85t-168 -35.5q-148 5 -227 83t-112.5 170.5t-34.5 210.5t33 215
q39 110 127.5 187t220.5 75q163 -3 236 -100t81 -203l7 -76v0zM809 592h426q-2 27 -4.5 60t-17.5 70t-66 65t-127 21.5t-127.5 -46t-64.5 -98.5l-19 -72v0z" />
    <glyph glyph-name="uni0436" unicode="&#x436;" 
d="M808 457l-296 267q-36 32 -59 47t-57 29.5t-56 20.5l-32 7q-13 2 -13.5 13.5t13.5 11.5h360q17 0 18.5 -14t-16.5 -15l-32 -3q-17 -2 -36.5 -12.5t-23 -26.5t10.5 -36.5t37 -41.5l218 -204q21 -21 39 -33t32 -11h26v248q0 42 -9 64t-36.5 37t-53.5 19l-39 5
q-22 2 -18.5 15t23.5 13h363q26 0 25.5 -13.5t-14.5 -15.5l-32 -5q-32 -5 -57.5 -22t-33.5 -40.5t-8 -56.5v-248q18 -1 34 0t36 10t53 40l221 207q14 13 30.5 37.5t16.5 35.5q-1 9 -12.5 23t-34.5 19l-29 5q-24 4 -24.5 16.5t26.5 12.5h340q21 0 23.5 -12t-25.5 -19l-40 -10
q-25 -7 -55 -20.5t-59 -38.5l-59 -56l-278 -240l333 -339q15 -16 39.5 -36t49 -33t45 -20t43 -10.5t35.5 -10t11 -15.5t-16 -9h-385q-18 0 -17.5 10t11.5 13l23 5q18 4 35 8t23.5 11.5t7 19.5t-19.5 36q-38 42 -53 59l-109 113q-90 96 -130 120.5t-64 23.5h-26v-226
q0 -56 8.5 -86t30 -49.5t69.5 -26.5l25 -4q20 -4 20.5 -17t-16.5 -13h-368q-30 0 -29.5 12t12.5 14l34 5q29 4 57 17.5t37.5 56.5t9.5 91v226q-14 0 -28.5 -1.5t-72.5 -47.5t-109 -98t-99.5 -104t-64.5 -73t-14 -32q1 -21 15.5 -27t63.5 -13l31 -5q19 -4 17 -15.5t-15 -11.5
h-397q-14 0 -11.5 12t11.5 13l30 3q38 3 71 21t58 39.5t50 47.5z" />
    <glyph glyph-name="uni0437" unicode="&#x437;" 
d="M1117 461q53 -13 102.5 -31t92 -70.5t40.5 -127.5q-3 -68 -43.5 -118.5t-107.5 -83t-159 -43t-167 -1.5q-102 12 -160.5 50t-82.5 75t-35 62t-10.5 32.5t9 11t21.5 -4.5q13 -9 33.5 -41.5t65 -72.5t154.5 -53q97 -13 187.5 19.5t123 84t34 110.5t-39.5 106q-43 47 -99 56
t-109 12.5t-59 4.5l-24 1q-13 0 -22 5t-8.5 18.5t21.5 19.5q5 1 22.5 0t40.5 1q30 1 68.5 8.5t83 28t67.5 57.5t22 96q-2 51 -28.5 97t-86 66.5t-114.5 19.5q-78 -3 -129.5 -33.5t-76 -67.5t-38.5 -72.5t-24.5 -51.5t-27 -14t-14.5 18l19 253q1 17 12.5 16.5t20.5 -16
t16.5 -23.5t29.5 -9q14 -2 28.5 2t62.5 22t86 25t79 7q50 -1 112.5 -17t108 -49.5t71 -76.5t28 -92t-15.5 -85q-18 -35 -62 -68.5t-72 -43.5l-47 -19v0z" />
    <glyph glyph-name="uni0438" unicode="&#x438;" 
d="M1283 607l-516 -510q5 -18 11.5 -30t28.5 -31t55 -25l38 -8q27 -5 22.5 -18.5t-21.5 -13.5h-383q-21 0 -21.5 12t21.5 16l42 5q16 2 41.5 15t39.5 32t16.5 38.5t2.5 51.5v533q0 22 -7.5 48t-25.5 47t-38.5 29t-47.5 11l-32 3q-19 1 -18 15t18 14h388q17 0 17.5 -14
t-14.5 -19l-38 -14q-19 -7 -38 -16.5t-38 -40t-19 -63.5v-474l516 518q-11 21 -22 36.5t-29 27.5t-43 21l-43 15q-20 6 -19.5 17.5t19.5 11.5h389q21 0 19 -14t-17 -15l-27 -3q-23 -3 -45.5 -11.5t-38 -25t-22 -41.5t-6.5 -57v-530q0 -23 5 -48.5t23 -48t37.5 -30
t50.5 -12.5l27 -5q21 -5 18.5 -16.5t-20.5 -11.5h-385q-19 0 -21.5 13.5t26.5 19.5l30 6q31 6 51.5 18.5t31.5 40t11 74.5v457z" />
    <glyph glyph-name="uni0439" unicode="&#x439;" 
d="M1022 1023q49 -3 84.5 6t69.5 28t44.5 10.5t10.5 -25.5q-1 -14 -28.5 -48.5t-76.5 -54t-104 -16.5q-78 3 -115 32.5t-52.5 62t-11.5 43t12.5 14.5t35.5 -12q28 -19 58.5 -29t72.5 -11zM1284 617l-516 -511q5 -18 11.5 -30t28.5 -31t55 -25l38 -8q26 -6 22 -19t-21 -13
h-383q-20 0 -21.5 12.5t21.5 15.5l42 5q15 1 41 14.5t40 32.5t16.5 39.5t2.5 50.5v534q0 20 -7.5 47t-25 47.5t-39 28.5t-47.5 11l-32 3q-20 1 -18.5 15t18.5 14h388q17 0 17.5 -13.5t-14.5 -18.5l-38 -14q-15 -6 -36.5 -17.5t-40 -40.5t-18.5 -63v-474l516 518
q-11 22 -21.5 37t-29.5 27t-43 21l-43 15q-21 7 -19.5 18t19.5 11h389q20 0 19 -14t-17 -15l-27 -3q-23 -3 -45.5 -11.5t-38 -25t-22 -41.5t-6.5 -56v-530q0 -23 5 -49t22.5 -47.5t39.5 -30.5t49 -13l27 -5q21 -5 18.5 -16.5t-20.5 -11.5h-385q-19 0 -21.5 13.5t26.5 19.5
l30 6q31 6 51.5 18.5t31.5 40t11 75.5v457z" />
    <glyph glyph-name="uni043A" unicode="&#x43a;" 
d="M757 468h44q34 0 67.5 18.5t80 61t79.5 75.5l94 94q33 31 41 52t2.5 32t-30.5 21l-44 16q-21 7 -18 19.5t32 12.5h336q31 0 30 -14t-18 -17l-31 -6q-27 -6 -57.5 -19t-54.5 -30t-57 -46.5t-93 -81.5l-123 -107l-64 -55l353 -349q44 -45 63.5 -62t47 -32t56.5 -21l41 -10
q27 -7 23 -20.5t-15 -13.5l-381 -1q-38 -1 -34.5 15t21.5 20l28 5q40 7 44.5 39t-17.5 55l-53 52q-52 50 -109 103t-89 86.5t-60.5 48t-68.5 14.5h-66v-267q0 -23 9 -51.5t31 -48t45 -28.5l41 -17q23 -10 23.5 -20t-14.5 -10h-373q-25 0 -26.5 13.5t20.5 19.5l48 12
q28 7 49 24t29 43.5t8 61.5v547q0 28 -15 52.5t-38 42t-49 27.5l-40 15q-16 6 -16 17t19 11h393q12 0 14.5 -10t-16.5 -16l-40 -14q-27 -10 -49 -26t-37.5 -45t-15.5 -56v-232z" />
    <glyph glyph-name="uni043B" unicode="&#x43b;" 
d="M1189 209v385q0 68 -7 104t-30.5 61.5t-82.5 25.5h-103q-53 0 -87.5 -23.5t-43 -58t-8.5 -109.5v-350q0 -73 -9.5 -132.5t-40.5 -92.5t-73.5 -50.5t-90.5 -20.5q-50 -4 -85 9.5t-51.5 36t-15.5 56.5q1 42 23 62.5t56 30.5t60 -5q18 -11 27 -33l14 -49q11 -24 29 -27.5
t36 16.5q11 12 19.5 58t11 63t2.5 70v358q0 57 -7 94t-27.5 67t-47.5 38l-57 16q-15 3 -21.5 19.5t17.5 17.5l825 2q30 0 32.5 -15.5t-26.5 -21.5l-36 -8q-35 -8 -57 -30t-26 -57.5t-4 -121.5v-383q0 -87 8 -111t27.5 -42.5t46.5 -25.5l52 -14q24 -7 23.5 -22t-32.5 -15
h-382q-23 0 -20.5 16t23.5 21l22 5q53 12 78.5 31t32 50t6.5 105z" />
    <glyph glyph-name="uni043C" unicode="&#x43c;" 
d="M648 863l369 -626l365 629l234 1q27 0 29.5 -19t-29.5 -27l-34 -9q-34 -9 -55 -31t-27.5 -53.5t-6.5 -85.5v-405q0 -58 6.5 -94t26 -59.5t43.5 -33.5l49 -21q21 -10 22 -26.5t-30 -16.5h-361q-26 0 -29.5 17.5t24.5 25.5l38 11q32 9 53 31.5t30.5 69.5t9.5 96v425
l-396 -665l-374 642l1 -395q0 -50 4 -91.5t24 -74t51 -41.5l52 -16q20 -7 18.5 -23.5t-26.5 -16.5h-322q-25 0 -24 16t24 24l41 14q28 9 50.5 31.5t28.5 69.5t6 108v374q0 44 -9 87.5t-30 65t-60 36.5l-38 14q-21 7 -19 23.5t19 17.5z" />
    <glyph glyph-name="uni043D" unicode="&#x43d;" 
d="M762 443h538l-1 166q-1 45 -11.5 88.5t-31.5 64.5t-52 33l-54 19q-16 5 -14.5 22t14.5 17h394q26 0 26.5 -17t-21.5 -24l-54 -19q-27 -10 -46 -36t-25 -53t-6 -95v-357q0 -79 6.5 -115t29.5 -65t62 -39l38 -10q18 -5 18.5 -24t-18.5 -19h-390q-26 0 -23.5 17.5t18.5 22.5
l45 13q33 9 57.5 38.5t31.5 64.5t7 116v134l-538 1l1 -140q0 -87 8 -118.5t29.5 -60t44.5 -35.5l52 -16q19 -6 17.5 -24t-23.5 -18h-365q-28 0 -28.5 18t19.5 24l36 11q31 9 51.5 29.5t30.5 68.5t10 124v318q0 66 -9.5 113t-28 73.5t-49.5 35.5l-38 10q-24 6 -24 27t31 21
l367 -1q23 -1 20 -18t-23 -23l-29 -9q-41 -13 -64 -43t-29 -62t-6 -124z" />
    <glyph glyph-name="uni043E" unicode="&#x43e;" 
d="M1019 907q154 2 265 -88t151 -264.5t-26 -329.5q-59 -137 -163.5 -199t-226.5 -59q-119 2 -221 65.5t-158 205t-19 320.5q34 161 137 253.5t261 95.5zM743 487q-5 -118 23.5 -225t94 -171.5t156.5 -68t165 57.5q76 62 105.5 172t23.5 235q-8 126 -75 244.5t-217 115.5
q-139 -4 -205 -119t-71 -241z" />
    <glyph glyph-name="uni043F" unicode="&#x43f;" 
d="M649 162v442q0 55 -10 85.5t-31 51.5t-50 32l-44 16q-21 7 -20.5 24t29.5 17h996q24 0 26.5 -17.5t-16.5 -20.5l-41 -8q-31 -7 -56 -24.5t-30.5 -45t-5.5 -110.5v-418q0 -46 7 -78t28 -54.5t55 -31.5l41 -11q15 -5 15.5 -21t-21.5 -16h-354q-21 0 -27.5 15.5t16.5 21.5
l51 13q29 7 44.5 29.5t21.5 50.5t6 85v415q0 49 -10 83t-47 56t-104 22h-190q-75 0 -111 -20.5t-45 -53t-9 -87.5v-442q0 -35 9 -69t30.5 -53.5t56.5 -28.5l38 -10q19 -5 20 -21.5t-23 -16.5h-385q-15 0 -16 17.5t19 20.5l32 5q27 4 52.5 19t39 45.5t13.5 91.5z" />
    <glyph glyph-name="uni0440" unicode="&#x440;" 
d="M819 888v-121q42 37 99 77t150 40q121 -1 193.5 -77t95.5 -149.5t31 -172t-10 -185.5q-18 -86 -63.5 -158.5t-111 -116.5t-149.5 -57q-109 -18 -167 11l-68 29v-99q0 -47 7.5 -79.5t33 -60t66.5 -33.5l49 -8q23 -4 20 -22.5t-26 -18.5h-387q-19 0 -16 16t16 20l39 11
q27 7 49 25.5t30 48t8 101.5v705q0 45 -10.5 70t-27 33.5t-34.5 8.5q-8 -1 -25 -3t-30.5 -6t-23 -1.5t-10.5 16.5t13 19l25 8q27 8 60.5 21t73 34.5t73.5 50.5l27 23v0zM819 698v-482q0 -54 16 -94t62 -70.5t119 -27.5q99 3 150.5 54.5t71.5 113.5t20 168
q-1 120 -26.5 221.5t-88.5 149.5t-133 49q-84 0 -148 -50l-43 -32v0z" />
    <glyph glyph-name="uni0441" unicode="&#x441;" 
d="M651 535q13 106 63 197t136.5 136t173.5 51q70 4 146.5 -16t118.5 -68.5t42.5 -99.5t-23.5 -77.5t-66 -27t-63 20.5q-19 17 -24 50l-5 55q-7 38 -35 65t-96 27q-82 -1 -133.5 -41t-77.5 -117.5t-27.5 -172.5t26.5 -184q30 -101 95 -159.5t164 -57.5q81 0 128 36t74.5 77
t42.5 80t27 49t21 6.5t9.5 -21t-11.5 -43.5l-25 -62q-20 -48 -59 -104.5t-98 -95t-151 -43.5q-91 -7 -166 26t-130 113t-72.5 187t-4.5 214z" />
    <glyph glyph-name="uni0442" unicode="&#x442;" 
d="M613 854h808l18 -180q2 -23 -12 -26.5t-26 18.5l-12 35q-14 40 -52.5 58.5t-90.5 18.5l-166 -1l-1 -496q-1 -80 8.5 -127t33.5 -73t59 -37l36 -12q28 -10 26.5 -26t-23.5 -16h-391q-23 0 -25.5 16.5t22.5 23.5l32 8q38 9 65.5 36t35 76t7.5 131v497h-150
q-66 0 -102.5 -13t-58.5 -58l-22 -52q-15 -26 -27 -22t-11 24z" />
    <glyph glyph-name="uni0443" unicode="&#x443;" 
d="M1049 142l174 453q35 92 27.5 129t-34.5 54t-58.5 21.5t-41 8.5t-14.5 18.5t15 15.5l346 1q15 0 18.5 -13t-24.5 -26l-27 -10q-24 -10 -45.5 -30.5t-29 -35t-34.5 -81.5l-306 -761q-19 -46 -43 -89t-57.5 -83.5t-73.5 -62t-88 -22.5t-80.5 24t-38 67t14 74t72.5 33
q27 0 48 -14l31 -27q20 -15 44 -14q42 1 65 33.5t38 72.5l35 93l-220 594l-39 106q-15 32 -31 55t-34 36t-46.5 23t-40 17t-13 21.5t22.5 14.5h352q31 0 27 -16t-26 -23t-46 -16.5t-35.5 -31t-9.5 -39t25 -79.5z" />
    <glyph glyph-name="uni0444" unicode="&#x444;" 
d="M953 753v256q0 54 -4 74t-15.5 30t-31 10.5t-41.5 -1.5l-28 -3q-16 -2 -19.5 12t10.5 20l34 14q42 17 100.5 47t76.5 43l57 39v-546q30 26 72 55.5t122 34.5q96 5 177 -49.5t127.5 -159t50.5 -224t-49 -225.5q-39 -77 -103.5 -129.5t-147.5 -66.5q-116 -21 -159 16
l-90 65v-159q0 -75 7 -107.5t27.5 -54.5t61.5 -32l51 -14q19 -6 19.5 -22t-21.5 -16h-382q-27 0 -28 16t22 25l44 17q23 8 37.5 31t18.5 59.5t4 97.5v134q-34 -30 -68 -48.5t-102 -16.5q-134 2 -211 77.5t-113 169t-28 220.5q7 108 46 190.5t114.5 145t189.5 55.5
q82 -6 123 -41l49 -39v0zM953 123v568q-27 22 -55.5 40.5t-96.5 22t-130 -46.5q-58 -47 -85 -141.5t-21 -199.5q5 -116 68 -223t181 -102q77 3 116 54l23 28v0zM1092 682v-540q36 -41 70 -67.5t83 -30.5q48 -5 112.5 29.5t105.5 118.5t41 204q-1 92 -26.5 177.5t-74.5 130.5
t-125 52q-57 4 -99.5 -14.5t-59.5 -34.5l-27 -25v0z" />
    <glyph glyph-name="uni0445" unicode="&#x445;" 
d="M954 401l-175 266q-53 79 -74 99.5t-67.5 37.5t-54 22t-10.5 20.5t21 15.5h380q31 0 28 -18t-42 -32t-53.5 -26t-13.5 -34.5t42 -82.5l104 -156l119 151q42 54 51.5 71.5t7.5 34.5q-5 29 -37 43l-38 14q-24 14 -19 26t25 12h295q26 0 26.5 -15.5t-21.5 -25.5
q-10 -5 -36.5 -11t-57.5 -21t-58 -49l-222 -277l170 -250l45 -72q23 -35 49 -57t56 -35l62 -25q26 -13 24 -26.5t-18 -13.5l-388 -1q-27 -1 -18.5 16.5t25.5 21.5t39 14t27 39.5t-29 80.5l-130 194l-135 -161q-26 -31 -45 -57.5t-18 -43.5q0 -34 34 -52l35 -14
q16 -10 15.5 -23.5t-21.5 -13.5h-300q-20 0 -15.5 16t23.5 21l39 8q29 7 56.5 23t48 36.5t61.5 72.5z" />
    <glyph glyph-name="uni0446" unicode="&#x446;" 
d="M1559 19v-258q0 -29 -21 -20t-26.5 33.5t-20 82t-50 85t-81.5 32.5t-106 5h-738q-29 0 -29.5 16t20.5 24l44 16q28 10 50 32t31.5 51t9.5 87v441q0 60 -13.5 90.5t-39 45.5t-52.5 20l-32 5q-20 3 -19 20.5t16 17.5h385q22 0 22.5 -16.5t-19.5 -21.5l-38 -10
q-35 -10 -56.5 -29.5t-30.5 -53.5t-9 -68v-441q0 -58 9 -90.5t44.5 -51.5t111.5 -19h190q68 0 104.5 20.5t46.5 54.5t10 86v414q0 56 -6 84t-21.5 50.5t-44.5 30.5l-51 13q-23 5 -16.5 21.5t27.5 16.5h354q22 0 21.5 -17t-15.5 -21l-41 -11q-34 -10 -55 -32.5t-28 -54
t-7 -77.5v-417q0 -57 6 -90.5t34.5 -62t64.5 -28.5l65 -5v0z" />
    <glyph glyph-name="uni0447" unicode="&#x447;" 
d="M1199 477v186q0 53 -18 91t-64 55l-59 18q-22 12 -19 25t21 13h374q22 0 24 -12t-13 -23q-4 -3 -50 -19.5t-63.5 -54.5t-17.5 -93v-431q0 -67 5.5 -100t22 -55.5t35.5 -31.5t52 -16.5t36 -25.5t-23 -18h-376q-19 0 -20 14t14 24q4 2 49 9.5t64 37.5t22.5 81.5t3.5 80.5
v191q-57 -20 -112.5 -39t-116 -33.5t-123.5 -11.5q-94 4 -127.5 38.5t-47 75.5t-14.5 133l-2 110q-1 48 -20.5 76t-60 38t-50.5 17t-9.5 20.5t15.5 13.5l357 -1q17 -1 22.5 -12t-16.5 -26q-7 -5 -41.5 -13t-53.5 -31t-24.5 -62t-3.5 -115q1 -55 10 -87t41.5 -60.5
t117.5 -27.5q74 0 170 27l89 24v0z" />
    <glyph glyph-name="uni0448" unicode="&#x448;" 
d="M846 862l328 1q22 0 24 -14t-21 -25l-38 -16q-25 -13 -38 -33t-16 -54t-3 -83v-452q0 -56 10 -82.5t40 -42t97 -15.5h125q38 0 68 17t40 50t10 76v458q0 66 -15 104.5t-53 58.5l-38 17q-26 15 -22 28t30 13h327q27 0 26.5 -16t-18.5 -25l-46 -14q-48 -17 -62.5 -52
t-14.5 -117v-453q0 -58 15.5 -100t69.5 -58l41 -11q18 -9 19 -23t-27 -14h-1381q-18 0 -17.5 10.5t11 17t43 14.5t56.5 27t32.5 47t8.5 85v455q0 42 -10 73t-35 57t-59 34t-44.5 14.5t-9 20.5t20.5 14h358q23 0 24 -15.5t-22 -25.5l-35 -13q-40 -18 -57 -58.5t-17 -100.5
v-455q0 -56 13.5 -83t46.5 -42t80 -15h109q62 0 90.5 14.5t40 38.5t11.5 87v455q0 64 -15.5 104t-60.5 63l-39 16q-18 8 -19.5 22.5t18.5 15.5z" />
    <glyph glyph-name="uni0449" unicode="&#x449;" 
d="M843 863l317 1q21 0 23 -13t-21 -25l-36 -17q-25 -14 -37.5 -33.5t-15.5 -53.5t-3 -83v-454q0 -54 10.5 -81.5t39 -43t92.5 -15.5h121q37 0 66 17t38.5 50.5t9.5 75.5v459q0 67 -15 106.5t-52 58.5l-36 16q-26 15 -21.5 28t29.5 13h316q25 0 25.5 -16t-18.5 -25l-45 -14
q-46 -17 -59.5 -51.5t-13.5 -117.5v-455q0 -62 10 -87.5t45 -49t76 -23.5l44 -2v-242q0 -29 -15 -33t-29 17q-8 10 -12 36.5t-15 68.5t-35 68.5t-64 33t-147 6.5h-1076q-17 0 -16.5 11t10 17t40 13.5t55.5 27.5t32.5 47t7.5 86v457q0 44 -9 73.5t-34 56t-58 35t-42.5 14.5
t-8 20.5t20.5 14.5h344q22 0 23 -16t-20 -26l-34 -13q-39 -18 -55 -58t-16 -101v-457q0 -57 12.5 -83.5t44 -41.5t76.5 -15h106q60 0 88 14.5t38.5 38t10.5 87.5v457q0 64 -15 102.5t-59 64.5l-37 17q-18 7 -19.5 21.5t18.5 15.5z" />
    <glyph glyph-name="uni044A" unicode="&#x44a;" 
d="M536 860h557q27 0 26 -16.5t-7 -20.5t-35.5 -10.5t-50 -22t-35.5 -43.5t-15 -79v-201q91 0 164 -2t148.5 -13.5t130 -40t78.5 -71t24.5 -106.5t-21.5 -109q-29 -57 -90 -90t-138.5 -41.5t-137.5 -8.5h-401q-19 0 -18 16.5t17 21.5l43 13q30 9 49 27t27.5 49t8.5 67v555
q0 46 -11 56.5t-37 10.5h-78q-33 0 -66.5 -7t-56.5 -25t-36.5 -59t-20 -51t-20 -7t-13.5 17v14zM976 409v-247q0 -48 3.5 -73.5t16 -35.5t46.5 -10h101q42 0 95.5 13t97 56.5t39.5 123.5q-4 67 -51 114t-170 59q-75 7 -131 3l-47 -3v0z" />
    <glyph glyph-name="uni044B" unicode="&#x44b;" 
d="M634 464q115 1 194.5 -1.5t172.5 -24t139 -77.5t46 -137q-2 -92 -54 -146.5t-139.5 -75.5t-211.5 -21h-395q-27 0 -18.5 16t37 22.5t56 19t42 43t14.5 79.5v528q0 46 -28.5 70.5t-65.5 31t-51 16t-12.5 23t23.5 13.5h369q18 0 20 -13.5t-15 -22.5q-8 -5 -37.5 -10.5
t-49 -17.5t-28 -29.5t-8.5 -60.5v-225zM634 114q-3 -59 10.5 -69t63.5 -10h76q60 0 120 15t99 56.5t37 117.5q-3 66 -37 103t-91 56t-125 18h-153v-287zM1417 207v410q0 53 -5.5 85.5t-24 65t-54.5 42.5l-55 14q-22 14 -17 26t20 12h368q31 0 27 -16t-21 -22l-50 -17
q-21 -10 -39 -28.5t-26 -54t-8 -110.5v-407q0 -86 18.5 -117t68.5 -49l44 -14q23 -9 24 -24.5t-21 -15.5h-374q-13 0 -14.5 12.5t8.5 21.5q7 6 47 14.5t58 35t22 65t4 71.5z" />
    <glyph glyph-name="uni044C" unicode="&#x44c;" 
d="M882 467q115 1 195.5 -1t172 -23.5t138 -78t46.5 -137.5q-2 -92 -54 -146.5t-139.5 -75.5t-211.5 -21h-395q-27 0 -18.5 16t21.5 20l56 15q42 17 57 49.5t15 79.5v529q0 45 -28.5 69.5t-66 31t-51 16t-12 23.5t23.5 14h369q19 0 20.5 -14t-15.5 -23q-6 -3 -36 -8.5
t-50 -19t-28.5 -30.5t-8.5 -59v-226zM882 117q-3 -58 11 -68.5t63 -10.5h76q57 0 119 15.5t100.5 56t36.5 117.5q-3 66 -37 103.5t-89 56t-127 17.5h-153v-287z" />
    <glyph glyph-name="uni044D" unicode="&#x44d;" 
d="M1215 433l-270 -2q-53 -1 -84 -9t-50.5 -30.5t-22.5 -57.5l-3 -26h-44v307h43q5 -43 14.5 -68t26 -36t62.5 -13.5t55 -2.5l271 -1q-5 38 -13 84t-46.5 121t-113 113.5t-182.5 36.5q-73 -2 -126.5 -22.5t-78.5 -51.5t-44.5 -70.5t-26 -62t-15 -38t-27 -12.5t-16.5 18
l24 294q2 27 18.5 23t23.5 -30.5t12.5 -32.5t21.5 -7q8 -1 34 8.5t82.5 22.5t101.5 18q112 12 210 -18.5t182.5 -108.5t111 -204t9.5 -217q-18 -90 -75.5 -178.5t-149.5 -141.5t-233 -58q-81 -3 -154 13t-115 46t-75.5 68.5t-49.5 65.5t-16 41.5t10.5 19.5t30.5 -10
q7 -6 39.5 -46.5t81.5 -69t106 -43t133 -4.5q106 12 177.5 63.5t112.5 131.5t38 151l-1 26v0z" />
    <glyph glyph-name="uni044E" unicode="&#x44e;" 
d="M570 452h267q4 46 16 109t78 149.5t160 128t191 47.5q111 6 207.5 -27.5t157 -95.5t92.5 -147.5t29 -187.5q-4 -121 -64.5 -233.5t-169.5 -166t-252 -48.5q-135 4 -232 54.5t-147.5 136.5t-59.5 194l-3 31h-270v-154q0 -41 5 -94.5t19 -72.5t47 -31l58 -20q12 -6 18 -23
t-18 -17h-372q-32 0 -29.5 16t37 25.5t59.5 21t38.5 36.5t17 58.5t3.5 100.5v380q0 61 -13 97t-35 54t-48 27l-44 13q-21 8 -21.5 23.5t16.5 16.5l379 1q26 0 23 -17t-13 -21.5t-41.5 -14t-48.5 -25.5t-27 -49.5t-10 -101.5v-173zM1602 562q-37 123 -112 188.5t-208 57.5
q-113 -7 -192.5 -75t-103 -157t-24 -168t21.5 -149q29 -94 101 -160t195 -69.5t210 65.5t111.5 168t21 170t-20.5 129z" />
    <glyph glyph-name="uni044F" unicode="&#x44f;" 
d="M901 394q-46 11 -102 29t-89 61.5t-32 110.5q0 58 34 115.5t114 85t184 34t184 6.5h248q25 0 24 -17t-27 -24l-55 -14q-33 -10 -51.5 -30t-17.5 -56l1 -501q0 -68 4.5 -87.5t26.5 -42.5t63.5 -33.5t51.5 -17t9 -20t-18 -13.5h-372q-27 0 -25.5 16t10 20t44.5 12.5
t57.5 32t26 47.5t4.5 86v192h-165l-296 -408l-234 -1q-31 -1 -28.5 14.5t11.5 19t45 12t71 27t59.5 39t70.5 81.5zM1199 449l-1 318q-49 -1 -117 -0.5t-129 -12.5t-101 -55t-40.5 -95t31.5 -88q26 -31 90 -50t146 -18z" />
    <glyph glyph-name="uni0451" unicode="&#x451;" 
d="M1383 541l-590 -1q-1 -39 0 -74.5t13 -99.5t54.5 -131t106 -100.5t145.5 -31.5q63 0 105 20t69 48.5t46 73.5t28.5 73.5t20 43.5t19.5 13.5t12.5 -18t1.5 -30.5q-3 -20 -13.5 -56.5t-29 -80.5t-52.5 -90t-99 -85.5t-168 -35.5q-148 5 -227 83t-113 170.5t-34 210
t33 214.5q39 111 127.5 188t220.5 75q163 -3 236 -100t81 -203l7 -76v0zM800 606h426q-2 27 -4.5 59.5t-17.5 69.5t-66 65t-127.5 21t-127.5 -46t-64 -98l-19 -71v0zM828 1294q26 0 54 -15t44.5 -42.5t16.5 -57.5q-1 -30 -16.5 -57t-42 -42.5t-56.5 -14.5q-31 0 -57.5 15
t-41.5 41.5t-15.5 57.5t15.5 58q15 27 43.5 41.5t55.5 15.5zM1229 1294q26 -1 55 -16t44.5 -41.5t15.5 -57.5q-1 -32 -16 -58t-42 -41t-57 -15q-32 -1 -58 14.5t-41 42t-15.5 57.5t15.5 58q15 27 43 42t56 15z" />
    <glyph glyph-name="emdash" unicode="&#x2014;" 
d="M0 524v173h2048v-173h-2048z" />
    <glyph glyph-name="quoteleft" unicode="&#x2018;" 
d="M1559 1378q48 -41 70.5 -73.5t25.5 -78t-23 -90.5q-27 -46 -72 -70.5t-92 -24.5q-48 -1 -91.5 23.5t-68 64.5t-24.5 88.5t24 103.5q14 32 47 82l48 73l33 54h217q-50 -74 -61 -94l-33 -58v0z" />
    <glyph glyph-name="quoteright" unicode="&#x2019;" 
d="M416 1192q-49 39 -71 71t-24 78.5t22 91.5q25 45 70.5 70.5t93.5 25.5q47 -1 90.5 -24.5t68.5 -64t25.5 -88.5t-24.5 -104q-15 -33 -47 -81l-48 -73l-33 -54h-217q49 73 61 94l33 58v0z" />
    <glyph glyph-name="quotedblleft" unicode="&#x201c;" 
d="M1402 1377q48 -40 70.5 -72t25.5 -78t-23 -91q-27 -46 -72 -71t-92 -25q-48 -1 -91.5 23.5t-67.5 65t-25 88.5t24 104q14 31 53.5 91t41.5 63l33 54h217q-50 -74 -61 -94l-33 -58v0zM1823 1377q48 -40 70.5 -72t25.5 -78t-23 -91q-27 -46 -72 -71.5t-92 -24.5
q-47 0 -91 24t-68 64t-25.5 89t24.5 104q14 30 47 81l48 73l34 54h216q-50 -74 -61 -94l-33 -58v0z" />
    <glyph glyph-name="quotedblright" unicode="&#x201d;" 
d="M640 1192q-49 39 -71 71t-24.5 78.5t22.5 91.5t70.5 70.5t93.5 25.5q47 -1 90.5 -24.5t68.5 -64t25.5 -88.5t-24.5 -104q-15 -33 -47 -81l-48 -73l-33 -54h-217q49 73 61 94l33 58v0zM219 1192q-49 39 -71 71t-24 78.5t22 91.5q25 45 70.5 70.5t93.5 25.5
q47 -1 90.5 -24.5t68.5 -64t25.5 -88.5t-24.5 -104q-15 -33 -47 -81l-48 -73l-33 -54h-217q49 73 61 94l33 58v0z" />
    <glyph glyph-name="ellipsis" unicode="&#x2026;" 
d="M364 784q37 2 82 -18.5t70 -59.5t24.5 -101t-47.5 -111t-118 -48.5t-119.5 50t-48.5 121.5q0 74 48 118t109 49zM1016 784q36 2 81.5 -18.5t70.5 -59.5t24.5 -101t-48 -111t-118 -48.5t-120 50t-48.5 121.5q0 73 48 117.5t110 49.5zM1650 784q36 2 81.5 -18.5t70.5 -59.5
t25.5 -100.5t-48 -111t-118.5 -49t-119.5 50t-48.5 121.5q0 73 48 117.5t109 49.5z" />
    <glyph glyph-name="perthousand" unicode="&#x2030;" 
d="M268 -203l732 1636h213l-733 -1636h-212zM170 956q-1 81 15 165.5t80.5 138.5t140.5 56q70 0 129.5 -43.5t85.5 -122.5t27.5 -191.5t-28 -202t-93.5 -124t-121 -31.5q-67 2 -122.5 41.5t-84 113.5t-29.5 200zM356 947l6 -99q1 -54 16.5 -73.5t30.5 -17.5q13 1 24.5 22
t14.5 69l5 80l-3 116q0 58 -12 86t-29 28.5t-33 -24.5q-14 -21 -17.5 -65.5t-4 -69.5t1.5 -52zM848 301q-1 79 16 165t80 139t140 55q71 1 130 -41.5t85.5 -123t28 -192.5t-28 -201t-94 -122.5t-121.5 -31.5q-68 2 -123 40.5t-83.5 113.5t-29.5 199zM1034 292l7 -99
q1 -55 16.5 -73.5t29.5 -16.5q13 1 25 22t15 84.5t4 64.5l-3 115q1 58 -11.5 86t-29.5 28.5t-33 -24.5q-14 -21 -17.5 -66t-4 -71t1.5 -50zM1395 301q-1 79 16 165t80 139t140 55q71 1 130.5 -42t85 -121.5t27 -193t-27 -202.5t-93.5 -121.5t-122 -31.5q-68 2 -123 40.5
t-83.5 113.5t-29.5 199zM1581 292l6 -99q1 -54 17 -73t30 -17q13 1 25 22t15 84.5t4 64.5l-3 115q1 58 -11.5 86t-29.5 28.5t-33 -24.5q-15 -22 -17.5 -62t-3 -74t0.5 -51z" />
    <glyph glyph-name="minute" unicode="&#x2032;" 
d="M272 876l123 461q15 59 42.5 83t78 27t87.5 -39t32.5 -85t-38.5 -91l-272 -385q-15 -22 -25 -30.5t-22 -7t-13.5 15.5t7.5 51z" />
    <glyph glyph-name="second" unicode="&#x2033;" 
d="M171 872l123 462q15 57 42.5 81.5t78 28t88 -38.5t32 -85t-38.5 -91l-272 -385q-15 -22 -25 -30.5t-22 -7t-13.5 15t7.5 50.5zM542 872l124 462q15 57 42 81t79 27.5t86 -35t31 -86t-32 -88.5l-277 -390q-16 -22 -25.5 -30.5t-21.5 -7t-14 15.5t8 51z" />
    <glyph glyph-name="uni203B" unicode="&#x203b;" 
d="M921 623l-719 715l84 81l729 -709l743 715l82 -86l-740 -716l725 -708l-87 -88l-726 708l-760 -716l-77 88zM1604 798q45 0 87 -23t67.5 -67.5t26 -91.5t-24.5 -89t-67 -67t-89 -24q-48 0 -90.5 24.5t-66.5 66t-23 90.5q0 47 24.5 91t67 66.5t88.5 23.5zM427 800
q45 0 87 -23t67.5 -67.5t26 -91t-24.5 -88.5t-67 -67t-89 -24q-48 0 -90.5 24.5t-66.5 66t-23 90.5q0 46 24.5 90t67 66.5t88.5 23.5zM1016 1378q43 -1 84.5 -22.5t65 -63t24 -88.5t-22.5 -87q-24 -41 -64.5 -64t-86.5 -23q-47 -1 -87.5 22.5t-64 63.5t-24 86.5t24.5 88.5
q25 43 66 65t85 22zM1016 219q43 0 85.5 -23t67.5 -65.5t25 -89.5q-1 -47 -25 -89t-65 -66t-88 -23q-48 0 -89.5 24t-65.5 65.5t-24.5 88.5t24.5 89q25 43 68 65.5t87 23.5z" />
    <glyph glyph-name="uni2103" unicode="&#x2103;" 
d="M434 1428q58 0 113.5 -29.5t87 -85.5t32 -117t-30.5 -114q-31 -54 -86 -86t-116 -31q-62 0 -116.5 31.5t-85 85t-30.5 115.5q0 60 31.5 116t87 85t113.5 30zM433 1316q-26 -1 -53 -16t-41.5 -42.5t-15 -59t14.5 -56.5q14 -26 40.5 -42t54.5 -16q28 -1 54 15t40.5 42.5
t14.5 58.5q-1 30 -15.5 57.5t-41 43t-52.5 15.5zM1869 686h-322q-13 22 -29 48.5t-49 54t-92 49t-136 20.5q-146 -3 -226 -68t-118.5 -145.5t-41 -179t36.5 -177.5q41 -87 124.5 -141.5t201.5 -60.5q90 -6 158 21t111.5 76t57.5 112l15 61h311q-10 -51 -18.5 -89t-25 -85
t-61 -119t-125.5 -134.5t-194.5 -93t-232.5 -29.5q-140 0 -235 33.5t-168.5 87.5t-135 130.5t-91 183.5t-30.5 197t15 169q20 103 71.5 197t144 174.5t204 121t236.5 46.5q131 5 219 -22.5t154.5 -66t109 -76t85 -99t55.5 -115.5l21 -81v0z" />
    <glyph glyph-name="uni2116" unicode="&#x2116;" 
d="M248 1375h231l406 -844v844h294v-1586h-234l-403 820l-1 -755l-293 -68v1589zM1905 507q-3 -93 -34 -182t-105 -151t-178 -63q-82 -2 -158 45t-119 146t-44.5 216t38.5 214q37 93 109 149.5t174 55.5q108 -2 180 -64.5t105.5 -154t31.5 -211.5zM1643 482q0 13 -2 90
t-16 112t-35 39.5t-46 -44.5q-14 -26 -16.5 -93t-1.5 -77q0 -37 4.5 -87.5t16.5 -72t29 -26t39 18.5q17 18 22 78.5t6 61.5zM1297 3l594 -1l-70 -192h-524v193z" />
    <glyph glyph-name="uni2160" unicode="&#x2160;" 
d="M894 1311h259v-1404h-259v1404z" />
    <glyph glyph-name="uni2161" unicode="&#x2161;" 
d="M533 1311h259v-1404h-259v1404zM1248 1311h260v-1404h-260v1404z" />
    <glyph glyph-name="uni2162" unicode="&#x2162;" 
d="M1466 1314h260v-1403h-260v1403zM892 1314h260v-1403h-260v1403zM305 1314h259v-1403h-259v1403z" />
    <glyph glyph-name="uni2163" unicode="&#x2163;" 
d="M1344 308l227 1006l265 1l-345 -1400h-309l-351 1399h274zM288 1314h259v-1403h-259v1403z" />
    <glyph glyph-name="uni2164" unicode="&#x2164;" 
d="M1026 258l338 1050h280l-486 -1397h-277l-492 1397h283z" />
    <glyph glyph-name="uni2165" unicode="&#x2165;" 
d="M706 298l239 1006h273l-350 -1393h-310l-344 1393h265zM1762 1311v-1404h-259v1404h259v0z" />
    <glyph glyph-name="uni2166" unicode="&#x2166;" 
d="M1125 1311h16h237v-1404h-253v1404zM588 305l193 999h246l-300 -1397h-284l-310 1397h259zM1604 1311h16h238v-1404h-254v1404z" />
    <glyph glyph-name="uni2167" unicode="&#x2167;" 
d="M492 417l118 901h240l-243 -1403h-237l-249 1403h249zM915 1318h228v-1407h-228v1407zM1287 1318h227v-1407h-227v1407zM1655 1318h227v-1407h-227v1407z" />
    <glyph glyph-name="uni2168" unicode="&#x2168;" 
d="M1294 410l-318 -499h-297l463 728l-395 675h297l253 -432l250 432h301l-402 -664l432 -739h-304zM284 1314h252v-1403h-252v1403z" />
    <glyph glyph-name="uni2169" unicode="&#x2169;" 
d="M1021 416l-338 -509h-303l492 739l-415 665h308l260 -429l259 429h301l-412 -665l446 -739h-308z" />
    <glyph glyph-name="uni216A" unicode="&#x216a;" 
d="M767 423l-331 -516h-290l475 739l-395 665h288l253 -425l253 425h290l-398 -665l429 -739h-291zM1797 1311v-1404h-247v1404h247z" />
    <glyph glyph-name="uni216B" unicode="&#x216b;" 
d="M581 379l-263 -472h-273l405 732l-328 672h284l179 -408l199 408h290l-354 -662l364 -742h-276zM1444 1312v-1403h-249v1403h249zM1870 1312v-1403h-250v1403h250z" />
    <glyph glyph-name="arrowleft" unicode="&#x2190;" 
d="M1914 697v-173h-1397l201 -445q18 -41 9.5 -45.5t-30.5 18.5l-555 564l557 538q10 10 17.5 8t8 -7t-3.5 -14l-198 -444h1391z" />
    <glyph glyph-name="arrowup" unicode="&#x2191;" 
d="M939 -286v1389l-444 -197q-10 -5 -15.5 -4.5t-6.5 7.5t9 18l538 558l564 -555q22 -23 17 -31t-44 10l-446 202v-1397h-172z" />
    <glyph glyph-name="arrowright" unicode="&#x2192;" 
d="M145 697h1390l-198 444q-4 7 -3 13.5t7.5 8t17.5 -8.5l558 -538l-556 -564q-23 -23 -31 -18.5t11 45.5l201 445h-1397v173z" />
    <glyph glyph-name="arrowdown" unicode="&#x2193;" 
d="M1110 1495v-1390l444 198q9 4 14.5 3.5t6.5 -8t-8 -17.5l-538 -557l-564 555q-22 22 -17.5 30t44.5 -9l446 -202v1397h172z" />
    <glyph glyph-name="element" unicode="&#x2208;" 
d="M1573 1463v-171q-65 -4 -144.5 -10t-210.5 -33.5t-262.5 -105t-214 -186t-92.5 -191.5l-11 -71h939v-169h-941q5 -40 14 -86t40.5 -105.5t89 -122.5t170.5 -134t263.5 -102t245.5 -37l118 -9v-171q-70 2 -179 7.5t-283 53t-339 163.5t-248 267t-84.5 319.5t48 311.5
t214 294t316.5 200.5t273 65t190 18.5l88 4v0z" />
    <glyph glyph-name="product" unicode="&#x220f;" 
d="M1672 -249h-546v71q25 -2 54.5 1t55.5 27.5t35 51t9 87.5v1239q0 58 -15 91t-48.5 52.5t-105.5 19.5h-213q-74 0 -99 -25.5t-35 -58t-10 -93.5v-1225q0 -52 18.5 -91.5t41.5 -56.5t62 -17l52 -2v-71h-529l1 73q29 -2 56 0.5t51.5 19.5t36 43.5t11.5 131.5v1191
q0 40 -13 85.5t-38.5 65.5t-69.5 24l-44 4v80h1265v-75q-34 -4 -73 -7.5t-60 -19t-31 -50t-10 -73.5v-1258q0 -66 13 -87.5t47.5 -47t83.5 -26.5l47 -3v-71z" />
    <glyph glyph-name="summation" unicode="&#x2211;" 
d="M387 1472h1164l2 -422h-66q-7 34 -16.5 70.5t-41 91t-85 95t-142.5 52.5t-155 12h-360l441 -658l-498 -799h439q98 0 174.5 20.5t138.5 61.5t114.5 107t71.5 126l24 71l59 1l-78 -549h-1158l515 850z" />
    <glyph glyph-name="radical" unicode="&#x221a;" 
d="M197 530l336 177l279 -504l939 1130l101 -27l-1128 -1356l-317 578l-162 -82z" />
    <glyph glyph-name="proportional" unicode="&#x221d;" 
d="M1194 760q35 32 82 70t127.5 66.5t195.5 41.5t152 9l75 -7l-38 -171q-11 1 -31.5 3t-96 0.5t-163 -30t-127.5 -72.5l-50 -51q44 -45 87 -76t119 -48t135 -18.5t95 10.5l22 7l49 -178q-39 -3 -86.5 -6t-135.5 -2t-192 31.5t-158 83.5l-60 54q-44 -40 -96.5 -79t-171 -73
t-273 -27t-257.5 99t-101 230t117 234t293 94.5t274.5 -51t155.5 -97.5l58 -47v0zM1071 618q-34 31 -75.5 67t-116 65t-173.5 28.5t-162 -50.5t-61.5 -106t64.5 -105.5t175 -47.5q91 0 173.5 33.5t128.5 74.5t47 41z" />
    <glyph glyph-name="infinity" unicode="&#x221e;" 
d="M1026 786q15 31 40 71.5t121.5 109t244.5 61.5t268 -120.5t117 -309.5q-4 -191 -128.5 -307t-274.5 -119q-78 -2 -183 40t-167 144l-41 63q-34 -57 -73 -109t-124.5 -95t-228 -45.5t-264 117t-124 298t109 315.5t281 130.5t252.5 -61t105 -87.5l69 -96v0zM639 857
q-66 0 -127.5 -32t-97 -93.5t-36 -128t33.5 -124.5q32 -58 89.5 -91.5t123.5 -33.5q68 -1 132 34.5t114 104.5t49 119q-2 38 -47 109t-108.5 103t-125.5 33zM1383 856q-51 -4 -111.5 -39t-104 -94t-45 -110t56.5 -127q42 -56 97 -93.5t124 -38.5q62 -2 119 32t87 89
t31.5 123.5t-23.5 122.5q-28 58 -92 98.5t-139 36.5z" />
    <glyph glyph-name="angle" unicode="&#x2220;" 
d="M330 -123l1306 1491l131 -114l-1042 -1209h918l-1 -168h-1312z" />
    <glyph glyph-name="uni2225" unicode="&#x2225;" 
d="M651 -157l180 1535h169l-189 -1535h-160zM1038 -157l181 1535h170l-190 -1535h-161z" />
    <glyph glyph-name="logicaland" unicode="&#x2227;" 
d="M408 -248l513 1717h199l545 -1717h-180l-462 1492l-441 -1492h-174z" />
    <glyph glyph-name="logicalor" unicode="&#x2228;" 
d="M399 1473h179l446 -1491l462 1491h179l-544 -1717h-199z" />
    <glyph glyph-name="intersection" unicode="&#x2229;" 
d="M1590 -236h-172v946q0 77 -5.5 180t-23 182t-62 128.5t-122.5 72.5t-166 28q-129 6 -204.5 -26t-119.5 -89.5t-61.5 -133t-21 -177.5t-3.5 -165v-946l-172 -1v947q0 105 4 190t17 166t52 163t119 142.5t178.5 80t194.5 18.5q124 -2 233 -31.5t183 -90.5t106.5 -175.5
t39 -234t6.5 -225.5v-949z" />
    <glyph glyph-name="union" unicode="&#x222a;" 
d="M459 1468h172v-947q0 -70 5 -178.5t22 -185.5t62.5 -127t122 -73t167.5 -26q129 -6 204.5 25.5t118.5 88t61 134.5t22 174.5t4 167.5v947h172v-947q0 -96 -5.5 -187t-18 -171.5t-50.5 -161.5t-119 -141.5t-178 -80t-194 -17.5q-128 1 -235.5 30t-182 91.5t-107.5 175.5
t-38 227.5t-5 231.5v950z" />
    <glyph glyph-name="integral" unicode="&#x222b;" 
d="M1052 185q-2 46 -10.5 117.5t-29.5 189t-36 207t-22.5 166t-5.5 154.5q1 58 9.5 116.5t35 120.5t86.5 131t118 85t99 16q83 -1 135.5 -44t53 -100t-24.5 -91t-78 -37.5t-83 27t-33 68.5q-2 18 5 38t4.5 32.5t-35.5 12.5q-19 -1 -39.5 -20.5t-37.5 -50t-29.5 -96t-13 -161
t20.5 -231.5q6 -47 27 -167.5t38.5 -231.5t19 -186.5t-14.5 -155.5q-14 -67 -46 -135.5t-93.5 -122.5t-126 -72t-123.5 -8q-55 9 -92 40.5t-43.5 88.5t24 99.5t80 38.5t82.5 -40q29 -35 23.5 -72t-3 -46t15 -12.5t26.5 3.5q19 8 46 39t43 79.5t22.5 104.5t5.5 106z" />
    <glyph glyph-name="uni222E" unicode="&#x222e;" 
d="M988 197q-32 4 -70 11t-94.5 36.5t-101.5 75.5t-70 96t-36 101t-9 106q3 71 29.5 132t68 111t85 77.5t73.5 39.5l21 8q-1 16 -0.5 47.5t9.5 91t36.5 123t86 131t117 84t99.5 16.5q84 -1 136 -43.5t52.5 -100t-23.5 -91.5t-78 -37.5t-84 26.5t-33 69q-2 18 5 37.5
t4.5 32.5t-35.5 13q-18 -1 -39 -20.5t-37.5 -49.5t-29.5 -98t-13 -152q-1 -30 1 -46l1 -14q5 -1 8 -1l28 -3q82 -10 141 -44t103.5 -88t70.5 -128.5t23 -153.5t-27 -138t-72 -114t-89 -77t-70 -33l-13 -5q0 -10 -0.5 -40.5t-15 -97t-46 -134t-93 -121.5t-126 -72t-123.5 -8
q-55 9 -92.5 41t-44 88.5t24.5 98t81.5 38.5t82.5 -39q28 -34 22.5 -71.5t-2.5 -47t15.5 -12.5t26.5 4q19 8 45.5 38.5t42.5 80t22 98t6 111.5v17v0zM1154 353q6 4 17.5 10.5t33 21.5t50.5 61t38.5 93t8.5 84q-2 53 -22.5 103.5t-56.5 83t-78 51.5t-67 19h-7q1 -10 3.5 -27
t4 -28.5t30 -185t35.5 -213.5t9 -59l1 -14v0zM892 847q-13 -6 -22.5 -11.5t-40.5 -34t-54 -72.5t-26.5 -113.5t16.5 -118.5q14 -39 48.5 -79t68 -58.5t54.5 -21.5l36 -8h3q-2 9 -6 35.5t-25 140.5t-29 174l-21 153l-2 14v0z" />
    <glyph glyph-name="therefore" unicode="&#x2234;" 
d="M1012 1196q32 2 75 -17.5t66.5 -54.5t23 -92.5t-45 -102.5t-109.5 -44.5t-111.5 46t-45.5 111.5q0 67 45.5 108.5t101.5 45.5zM539 386q33 2 75.5 -17.5t65.5 -55t23.5 -91.5t-44 -101.5t-110 -46t-111 45.5t-45.5 112.5t45 108t101 45.5zM1494 386q34 2 76.5 -17.5
t65.5 -54.5t22.5 -92t-45 -102.5t-109.5 -44.5q-65 0 -110.5 45.5t-46 112t44.5 108t102 45.5z" />
    <glyph glyph-name="uni2235" unicode="&#x2235;" 
d="M535 1179q33 2 75.5 -17.5t65.5 -54t23.5 -92.5t-44 -103t-109.5 -44q-67 0 -112 45.5t-45 112t45 108t101 45.5zM1490 1186q34 2 76.5 -17t65.5 -54.5t22.5 -93t-44.5 -102t-109.5 -44t-111.5 45.5t-45 111q0 67 44.5 108t101.5 46zM1022 379q32 2 75 -17t66 -54t23 -82
q-1 -69 -45.5 -113.5t-109.5 -45t-111 45.5t-45 111q0 67 45 108.5t102 46.5z" />
    <glyph glyph-name="uni2236" unicode="&#x2236;" 
d="M1021 1224q30 1 74 -18.5t67 -54t22.5 -92.5t-44.5 -103t-109 -44q-65 0 -111 45.5t-46.5 112t45.5 108.5t102 46zM1010 312q32 1 75 -18.5t66.5 -54t23 -91.5t-44.5 -102.5t-109 -45.5q-66 0 -111.5 46t-45.5 112.5t45 108t101 45.5z" />
    <glyph glyph-name="uni2237" unicode="&#x2237;" 
d="M521 1271q33 2 75.5 -17.5t65.5 -55t23.5 -92.5t-44 -102t-110.5 -44.5t-111 46t-45 110.5q0 67 45 109t101 46zM1527 1267q34 2 76 -17.5t65 -55t23.5 -92.5t-44 -101.5t-110 -45t-112 45t-45.5 111.5q0 67 45.5 108.5t101.5 46.5zM1524 285q34 2 76 -17.5t65.5 -55
t23 -92t-45 -101.5t-109.5 -44.5t-111.5 45.5t-45.5 110q0 67 45.5 108.5t101.5 46.5zM521 282q31 2 74.5 -18t67 -54.5t23.5 -81.5q-1 -67 -45 -112t-109.5 -45.5t-111 45t-45.5 111.5q0 67 45.5 109t100.5 46z" />
    <glyph glyph-name="uni223D" unicode="&#x223d;" 
d="M600 760q-21 -2 -60 -7.5t-82 -46.5t-41.5 -100.5t57 -104.5t155.5 -40q95 4 156.5 43t144.5 137.5t155 163t158 95t185 30.5q170 -2 277.5 -90t108 -224.5t-79.5 -215.5q-83 -83 -226 -95l-68 -7v168q33 4 82.5 14t81.5 49t31.5 87t-61.5 91.5t-147 42.5
q-86 -2 -157.5 -41.5t-158 -138.5t-146.5 -158.5t-149 -93.5t-210 -30q-79 2 -148.5 22t-145.5 90t-73 223q3 118 87 212.5t218 98.5l55 3z" />
    <glyph glyph-name="approxequal" unicode="&#x2248;" 
d="M249 740q23 36 47.5 70t84.5 84t121 74t147 28q84 3 169 -12t219 -50.5t208.5 -51.5t118.5 -14q68 2 126.5 35t92.5 74l41 47l162 -78q-31 -45 -66 -89t-132 -103t-225 -62q-73 -3 -224.5 30t-277.5 70.5t-184 34.5q-138 -8 -210 -94l-68 -74zM249 281q23 37 47.5 71
t84.5 84t120.5 73t147.5 27q87 3 170.5 -11.5t218.5 -50.5t208 -51t118 -13q68 2 126 35t93 73l41 46l162 -77q-31 -45 -66 -89t-132 -103t-225 -62q-73 -3 -224.5 30t-277.5 70.5t-184 34.5q-138 -8 -210 -94l-68 -74z" />
    <glyph glyph-name="uni224C" unicode="&#x224c;" 
d="M1799 486v-171h-1551v171h1551zM613 1021q-22 -3 -61 -9.5t-81.5 -47.5t-41.5 -99t56.5 -104.5t149.5 -43.5q94 2 159 44.5t148.5 141t155 162t158.5 94.5t185 31q169 -1 276.5 -88.5t108 -225.5t-79.5 -217q-83 -82 -226 -94l-68 -7v168q33 5 84 15.5t82 48t30.5 85.5
t-61.5 92t-148 43q-86 -2 -157 -41t-157.5 -138t-147.5 -159.5t-142.5 -90t-189.5 -28.5q-76 0 -156.5 17.5t-160.5 86t-77 225.5q2 120 86.5 213.5t218.5 98.5l55 3zM1799 209v-171h-1551v171h1551z" />
    <glyph glyph-name="notequal" unicode="&#x2260;" 
d="M238 892h791l306 567l159 -81l-264 -486h573v-171h-654l-108 -201h762l1 -176l-850 1l-318 -576l-155 78l277 498l-521 1v174h603l111 201l-713 -1v172z" />
    <glyph glyph-name="equivalence" unicode="&#x2261;" 
d="M1800 211v-172h-1553v172h1553zM1800 700v-171h-1553v171h1553zM1800 1190v-172h-1553v172h1553z" />
    <glyph glyph-name="lessequal" unicode="&#x2264;" 
d="M237 770l1568 544v-169l-1229 -428l1229 -409v-182l-1569 533zM236 531l1569 -526l-2 -178l-1566 529z" />
    <glyph glyph-name="greaterequal" unicode="&#x2265;" 
d="M1803 770l2 -111l-1569 -533v182l1228 409l-1228 428v169zM1805 531l-2 -175l-1566 -529l-1 178z" />
    <glyph glyph-name="uni226E" unicode="&#x226e;" 
d="M935 966v362h173v-298l714 311v-196l-714 -307v-435v-11l714 -283v-191l-714 283v-304h-173v371l-678 280v128zM935 457v314l-351 -159z" />
    <glyph glyph-name="uni226F" unicode="&#x226f;" 
d="M1111 966l678 -290v-128l-678 -280v-371h-174v304l-713 -283v191l713 283v11v435l-713 307v196l713 -311v298h174v-362zM1111 457l352 155l-352 159v-314z" />
    <glyph glyph-name="uni2299" unicode="&#x2299;" 
d="M1020 794q83 -1 136 -53.5t53 -128.5q-1 -77 -54 -128t-132 -52.5t-133.5 48.5t-55 133t54.5 132t131 49zM1016 1513q233 1 447.5 -111t338.5 -331t124.5 -461t-120.5 -452q-122 -210 -332.5 -331.5t-453.5 -120.5q-244 0 -454.5 121t-330.5 330t-121 459t125 465
q125 212 338.5 321t438.5 111zM1018 1342q-180 0 -356 -93.5t-276.5 -270t-99.5 -369.5q0 -197 97.5 -366.5t267.5 -267.5t367 -97q195 0 365.5 97.5t268.5 266t98.5 365t-97.5 368.5q-103 180 -280 273t-355 94z" />
    <glyph glyph-name="perpendicular" unicode="&#x22a5;" 
d="M936 -93v1600h173v-1600h797v-172h-1772v172h802z" />
    <glyph glyph-name="uni2312" unicode="&#x2312;" 
d="M1746 318h-167q-7 42 -21.5 128.5t-71.5 187t-176.5 177.5t-279 80.5t-284 -69.5t-199 -203.5t-74.5 -221.5l-3 -79h-168q2 68 11.5 155.5t95 233.5t255 242.5t366.5 97t356 -96t235 -225t95.5 -207t24.5 -136.5l5 -64v0z" />
    <glyph glyph-name="uni2460" unicode="&#x2460;" 
d="M886 1010h-150v211h428l1 -1198l-279 -82v1069zM1024 1516q136 -2 252 -37.5t210 -90t177 -140.5t136 -176.5t89 -203.5t36.5 -229t-18.5 -206q-30 -140 -94.5 -251t-147 -196t-180.5 -141.5t-213.5 -91.5t-246.5 -35q-117 -1 -232.5 30.5t-216.5 89.5t-185 140.5
t-174.5 240.5t-90.5 328.5t23 270.5q30 130 95.5 244t148.5 195t185.5 141t221.5 89.5t225 28.5zM1022 1388q-208 -8 -385.5 -102t-284 -282.5t-107 -395t104.5 -386.5q103 -180 283.5 -284t388.5 -104q208 -1 388.5 103.5t285 285t105 338.5t-30.5 265q-27 90 -78.5 179
t-125 160.5t-160.5 122t-197 76.5t-187 24z" />
    <glyph glyph-name="uni2461" unicode="&#x2461;" 
d="M917 788l-252 -1v36v36q0 113 3 165t27.5 101t52 74.5t50 36.5t55.5 19t62 8h224q30 0 87.5 -18t97 -72.5t51 -105.5t14.5 -120t3 -105q-2 -77 -15.5 -143t-46.5 -117t-86.5 -80t-105.5 -35l-92 -8q-26 -5 -51 -15.5t-45 -32t-20 -90.5l-1 -103l478 1l-87 -225l-654 -1
v320q0 72 10.5 137t52.5 113.5t87.5 67.5t91.5 27l107 13q46 6 68.5 24t29.5 50.5t12 123t-8 126.5q-9 24 -22.5 33t-54.5 9h-43q-48 0 -57.5 -14t-13 -39t-5 -50t-3.5 -111l-1 -35v0zM1017 1519q140 -2 253 -37t209 -91t177.5 -139.5t135 -176t89.5 -205t36.5 -249.5
t-40.5 -268q-31 -96 -84 -188t-135 -176t-179.5 -140.5t-211 -92t-250.5 -34.5q-144 0 -258 37t-196.5 84.5t-168.5 127t-141.5 175t-95 206t-39.5 250t30 251.5q29 110 94.5 222.5t148.5 191t180.5 135t213 87t232.5 30.5zM1015 1391q-208 -8 -385.5 -102t-284 -281.5
t-107 -394.5t104.5 -387q103 -181 283.5 -285t388.5 -104q208 -1 388.5 103.5t285.5 286t105 388.5q-1 107 -29.5 206t-80 188t-124.5 160t-160.5 121.5t-197 76.5t-187.5 24z" />
    <glyph glyph-name="uni2462" unicode="&#x2462;" 
d="M868 524v207l157 -1q29 -1 44.5 15t21 29.5t12 43.5t8.5 79t-2 80q-4 22 -13.5 36.5t-26.5 20t-45 5.5h-27q-45 0 -56 -14t-13.5 -33.5t-2.5 -75.5l-1 -75h-266v44q0 140 11 200.5t43 103.5t79.5 60t89.5 17h264q51 0 86.5 -14t75.5 -53.5t61 -92.5t28.5 -130t-10.5 -176
q-13 -67 -26 -86l-36 -58q27 -37 45 -69t30 -108.5t-1 -197.5q-11 -100 -33 -142.5t-56.5 -78.5t-81 -50.5t-87.5 -14.5h-177q-76 0 -119.5 6t-90 33.5t-68 75.5t-27 112.5t-3.5 135.5l1 55l266 2q-1 -35 -0.5 -66t5.5 -64t17 -49.5t54 -16.5h38q43 0 59 24.5t18 64t2.5 62
t-1.5 41.5q-4 27 -12 53.5t-21 42t-53 16.5zM1025 1514q137 -1 252 -36.5t210.5 -91.5t177.5 -140t135 -175t89 -204.5t36.5 -236t-24.5 -226.5q-31 -125 -92.5 -230.5t-143 -189.5t-166 -133t-194 -92t-280.5 -42q-173 0 -282.5 43t-184 86t-160 123.5t-146.5 185
t-93.5 216t-32.5 245.5q0 98 25 213t98 240t162.5 203t173.5 127.5t203 82t237 32.5zM1023 1386q-208 -8 -385.5 -102t-284 -282.5t-107 -394.5t104.5 -386q103 -181 283.5 -285t388.5 -104q208 -1 388.5 103.5t285 285.5t105 338.5t-30.5 264.5q-27 90 -78 179t-125 160.5
t-161 122t-197 76.5t-187 24z" />
    <glyph glyph-name="uni2463" unicode="&#x2463;" 
d="M1020 1512q140 -1 253 -36.5t209 -91.5t177.5 -139.5t135 -176t89.5 -205.5t36.5 -251t-43.5 -274q-30 -92 -83.5 -184.5t-137.5 -176t-190.5 -145t-220.5 -90t-225 -27.5q-123 0 -237.5 31t-207 85t-180 135t-147.5 185t-93.5 217.5t-33.5 239t30 237.5t86 209
t135.5 183t191 151.5t230.5 94.5t226 29zM1018 1384q-208 -8 -385.5 -102t-284 -282.5t-107 -395t104.5 -386.5q103 -180 283.5 -284t388.5 -104q208 -1 389 103.5t285 284.5t104.5 339.5t-30.5 265.5q-27 89 -79 179t-124.5 160.5t-160.5 121t-197 76.5t-187 24zM1279 1264
l1 -841h161l-62 -232h-99l-1 -153l-278 -78v231h-430v273l429 800h279zM855 423h147v321z" />
    <glyph glyph-name="uni2464" unicode="&#x2464;" 
d="M1024 1519q141 -2 254.5 -37t208 -90t177 -140t135.5 -177t89 -204.5t36.5 -246.5t-36.5 -259q-31 -102 -77 -181.5t-122.5 -170.5t-207.5 -167t-247.5 -100t-209.5 -24q-98 -1 -213 24t-226 89t-194.5 146t-147.5 193t-91 226t-27 266.5t77 319.5q18 40 74.5 135
t143.5 167.5t178.5 125.5t210 79.5t215.5 25.5zM1022 1391q-208 -8 -385.5 -102t-284 -281.5t-107 -394.5t104.5 -387q103 -181 283.5 -285t388.5 -104q208 -1 388.5 103.5t285 285.5t105 339t-30.5 265q-27 90 -78.5 179.5t-124.5 160t-160.5 121t-197 76.5t-187.5 24z
M665 494l2 745h708l-82 -230l-367 -1v-191q19 11 26.5 13.5t29.5 8.5l33 8h136q63 -1 105.5 -16.5t76.5 -72.5t44 -117t11 -155t1 -141q-3 -105 -26.5 -187t-76 -120t-129.5 -47.5t-194 -3.5q-80 4 -130 19.5t-88.5 56t-58.5 100.5t-21 131l-4 115h265q3 -47 6 -73t8 -41
t15 -32t27 -28t42 -12q22 -2 43.5 8t32.5 33t14 72l4 73q2 51 1 85q-2 40 -12.5 70t-31.5 46.5t-41 16.5h-14q-33 0 -55.5 -19t-32.5 -39.5t-10 -33.5l-3 -41h-254z" />
    <glyph glyph-name="uni2465" unicode="&#x2465;" 
d="M1024 1516q139 -2 253 -37.5t209.5 -91.5t177.5 -140t135 -175t89 -204.5t36.5 -239t-28.5 -236.5q-31 -118 -91.5 -222.5t-142.5 -187t-185 -142t-217.5 -91.5t-235.5 -31q-144 0 -258 38t-205 90t-174 135.5t-152.5 204.5t-89.5 236.5t-20 194.5q0 138 34 248.5
t89 204.5t136.5 178t195 150.5t236 92t208.5 25.5zM1022 1388q-208 -8 -385.5 -102t-284 -282.5t-107 -394.5t104.5 -387q104 -182 283.5 -285t388.5 -103q209 -1 389 102.5t284.5 285t105 339.5t-30.5 265q-27 90 -78.5 179t-125 160.5t-160.5 122t-197 76.5t-187 24z
M1382 824h-277q-1 61 -0.5 100t-5.5 61q-7 22 -22 35.5t-38 13.5h-33q-30 0 -48.5 -11.5t-25.5 -29t-10.5 -61.5t-3.5 -107q-1 -22 -0.5 -48t0 -44t1.5 -17l11 15q6 7 29.5 12t28.5 5.5t45 0.5h94q53 0 111.5 -12.5t85.5 -50t42 -85t21 -109t4 -146.5q-3 -80 -15 -149
t-54 -127.5t-99 -73.5t-178 -16q-168 -2 -218.5 12.5t-93 58t-58 92.5t-19.5 130.5t-4 124.5l-1 488q-1 15 6 75t16.5 107.5t44 99t82.5 70.5t115 19h202q47 0 103 -15.5t92.5 -49.5t48 -103t16.5 -132t5 -79v-54v0zM1018 209q37 1 53.5 9.5t32 45.5t12.5 104l-3 56
q-2 32 -7 54t-23 36.5t-57 17.5q-46 2 -65 -10t-30 -34t-12.5 -82t0.5 -84q2 -43 12.5 -69.5t25.5 -36t61 -7.5z" />
    <glyph glyph-name="uni2466" unicode="&#x2466;" 
d="M1122 979l-431 1v224h727v-254l-243 -582l-187 -429l-307 -2zM1033 1516q130 0 249 -36.5t213.5 -91.5t177 -139.5t135.5 -176.5t89 -205t36.5 -255.5t-48.5 -284.5q-29 -84 -82.5 -176t-138.5 -174.5t-170 -131.5t-199 -88t-262 -39q-134 -1 -248 34.5t-210.5 91
t-178.5 138t-139 180.5t-90 210t-33 247t40 264q29 94 74 171.5t120.5 168.5t171 147t206 100.5t287.5 45.5zM1031 1388q-208 -8 -385.5 -102t-284 -282.5t-107 -395t104.5 -386.5q103 -180 283.5 -284t388.5 -104q208 -1 388.5 103.5t285 285t105 338.5t-30.5 265
q-27 90 -78.5 179t-125 160.5t-160.5 122t-197 76.5t-187 24z" />
    <glyph glyph-name="uni2467" unicode="&#x2467;" 
d="M1028 1509q139 -2 253 -37.5t209.5 -91.5t177.5 -140t134.5 -175t89 -205t37 -246t-35.5 -255q-31 -105 -79 -188t-125 -173t-192.5 -156.5t-230 -98.5t-238.5 -32q-108 -1 -223.5 27t-232 95.5t-196.5 156t-137.5 188t-83.5 215t-26 217.5q0 126 32 238.5t105.5 239
t167.5 198.5t176.5 120.5t204.5 75.5t213 27zM1026 1380q-208 -8 -385.5 -102t-284 -282t-107 -394.5t104.5 -387.5q103 -180 283.5 -284t388.5 -104q208 -1 388.5 103.5t285.5 285t105 389.5q-1 108 -29.5 206t-80 187t-125 160.5t-160.5 122t-197 76.5t-187 24zM1274 633
q20 -15 35 -27.5t25 -27.5t24.5 -54t15.5 -123.5t-2 -144.5q-4 -58 -14 -110.5t-41.5 -99t-73.5 -64t-89 -17.5h-257q-65 0 -99.5 5t-62.5 22.5t-50.5 54t-33.5 79.5t-15.5 119t-1.5 163q2 78 20 127t46 69l34 26q-18 12 -42.5 35t-35.5 68.5t-17.5 122.5t12.5 183
q10 59 40.5 114.5t82.5 71.5t85 16h260q64 0 113 -14t75.5 -59.5t40 -106t17.5 -141t-12 -158.5q-12 -55 -28 -78.5t-26 -30.5l-25 -20v0zM1018 192q39 0 51.5 10t16 20t5.5 30.5t2 41.5v110q0 34 -7 51t-23.5 26.5t-49.5 9.5h-24q-44 0 -59 -12t-22.5 -38t-6.5 -49l1 -91
q0 -44 7.5 -67t23 -31t39.5 -9zM1016 760q26 6 39.5 16t24 38.5t10.5 67.5v59q0 19 -7.5 39t-23 30.5t-49.5 10.5h-26q-26 0 -46.5 -12.5t-27.5 -22.5t-7 -44v-73q0 -48 1.5 -62t18.5 -30.5t57 -16.5h36z" />
    <glyph glyph-name="uni2468" unicode="&#x2468;" 
d="M1022 1516q148 -4 257 -38t205 -90t177.5 -139.5t135 -176t89.5 -205t36.5 -258.5t-51.5 -292q-28 -78 -77 -161.5t-130 -168t-180.5 -142t-212 -92.5t-249.5 -34q-96 0 -212 24.5t-230 90t-196 148.5t-141.5 185.5t-89.5 214t-30 236.5q0 98 25 211.5t101 245
t165.5 206.5t198 138t230.5 80.5t179 16.5zM1020 1388q-208 -8 -385.5 -102t-284 -282t-107 -394t104.5 -387q103 -181 283.5 -285t388.5 -104q208 -1 388.5 103.5t285.5 285.5t105 389q-1 108 -29.5 206t-80 188t-124.5 160.5t-161 121t-197 76.5t-187 24zM1386 815v-418
q-2 -117 -10 -186.5t-40 -129t-82 -80t-168 -20.5h-199q-65 0 -107 9.5t-73 38.5t-44.5 73t-19 93.5t-4.5 136.5v65l259 1v-91q0 -40 8.5 -58t24 -23t76.5 -3q34 0 49.5 3t29 24t13.5 92v153q-22 -8 -38 -12t-101.5 -6.5t-111.5 1.5q-64 8 -107 39t-66.5 80t-28.5 103.5
t-5.5 136.5t4.5 148q3 59 16.5 106.5t49.5 88t84 57.5t119 17h186q49 0 104 -15t99.5 -62t59.5 -109t18 -127l5 -126v0zM1021 1022h-40q-23 0 -42 -9.5t-27 -32t-9.5 -54.5t-2 -67.5t2.5 -63.5q3 -46 17.5 -60.5t34 -17t59.5 -0.5q38 1 50.5 7t23.5 19t11.5 48.5t0.5 48.5
l-1 101q-1 23 -11.5 44t-25 29t-41.5 8z" />
    <glyph glyph-name="uni2469" unicode="&#x2469;" 
d="M611 959h-79v217h338l-1 -1106l-258 -70v959zM1367 1196q47 -4 67.5 -10t49 -19.5t45 -29t31 -41.5t23.5 -54.5t11.5 -52t5 -74.5t2.5 -62v-456q0 -71 -2 -103.5t-11.5 -81t-21.5 -72.5t-25.5 -41.5t-29.5 -33t-34.5 -24.5t-44 -15.5t-81 -12t-166.5 -0.5q-43 1 -60.5 6
t-38.5 15t-45 25.5t-42 37.5t-30.5 57t-17.5 71.5t-6.5 85t-1.5 103.5v447q0 20 4 87.5t9 90.5t15.5 44t31.5 41.5t50.5 36t65 26t77.5 10.5zM1296 980h-56q-12 0 -23 -11t-14 -22t-3 -38l-5 -73v-415q0 -50 0.5 -92.5t5.5 -58t14 -24.5t26 -14t49 1q23 3 32 11.5t11.5 20
t2.5 45.5v525q0 20 -1 57.5t-4.5 50t-13.5 25t-21 12.5zM1029 1515q144 -4 255.5 -38.5t207 -90.5t177.5 -140t134.5 -175t89 -205t37 -259.5t-51.5 -291.5q-28 -78 -77 -161.5t-130 -168t-180.5 -142t-212 -92.5t-249.5 -34q-96 0 -212 24.5t-230 90t-196 148.5
t-141.5 185.5t-89.5 214t-30 236.5q0 98 25 212.5t100.5 245t165.5 205.5t198 137.5t232 81t178 17.5zM1027 1386q-211 -8 -323.5 -68.5t-154 -93.5t-78 -71.5t-65.5 -77.5t-64 -99.5t-63.5 -156.5t-27.5 -209q0 -129 32.5 -226t74 -168.5t96.5 -131t101.5 -93.5t100 -64.5
t150 -62.5t221.5 -31q210 0 389.5 103t284.5 285t105 389q-1 108 -29.5 206t-80 188t-124.5 160.5t-161 121t-197 76.5t-187 24z" />
    <glyph glyph-name="uni2474" unicode="&#x2474;" 
d="M76 535q-1 92 0 156t10.5 172t20.5 181.5t30.5 154t34.5 123.5l39 120h232q-32 -68 -42.5 -96.5t-40 -131.5t-33.5 -119t-26 -136.5t-24.5 -148t-2.5 -106.5l-2 -154q0 -85 9 -160t24.5 -158t28.5 -137.5t39 -135.5t39 -108l39 -88h-240q-11 36 -16 55l-32 104
q-17 57 -40 188t-31 193.5t-11 115.5t-5 116zM1839 -231h-240q27 58 41 92.5t40 116t37.5 130t26.5 131.5t23.5 157t9.5 134t0 157t-3.5 122t-24.5 151.5t-25 142.5l-34 115q-38 126 -38 128l-45 102h232q26 -80 42 -132t32.5 -119t29 -148.5t21 -176.5t10 -172t0.5 -147
t-4 -117.5t-15 -131.5t-31 -196t-31.5 -159t-36.5 -125l-17 -55v0zM869 1048h-153v214h433l-2 -1241l-280 -73z" />
    <glyph glyph-name="uni2475" unicode="&#x2475;" 
d="M65 538q-1 92 0 156.5t10.5 171t20.5 181t30.5 155.5t34.5 123l39 119h232q-32 -68 -41.5 -94.5t-41 -133.5t-35 -121t-25 -134t-24 -147.5t-2.5 -106.5l-2 -154q0 -85 9 -160t24.5 -158t28.5 -138t39 -135t39 -108l39 -89h-240q-11 37 -16 56l-32 104q-17 58 -39.5 187
t-31 193.5t-11.5 117t-5 115.5zM1857 -231h-241q27 58 41 94t38.5 113t36.5 127.5t28 136.5t24 155.5t9 119.5t0 160t-4 143.5t-22.5 143.5t-24.5 129t-37.5 132t-35.5 122l-44 103h232q25 -80 41.5 -133.5t32.5 -119t28.5 -147.5t20.5 -175.5t10 -178t0.5 -144.5t-5 -115.5
t-14 -134.5t-30 -189.5t-29.5 -147.5t-39 -139l-16 -55v0zM928 778l-257 -1l-1 86q-2 89 0 139.5t18 105t49 87.5t81 52t96 19h194q37 0 86 -8t92 -49.5t62 -109.5t23.5 -148t4.5 -137q-1 -93 -16 -162t-61.5 -123t-120 -76t-130.5 -27t-78 -18.5t-29 -34.5t-9 -39t0 -58
l1 -90h456l-88 -227l-630 -1l-1 342q-1 92 9.5 150.5t45.5 104.5t79 66t87 27.5t99 13.5t75 19.5t29.5 36t10 77t1 105t-10.5 83.5q-13 33 -30.5 42.5t-40.5 9.5h-22q-27 0 -43.5 -16.5t-23.5 -38t-7 -78.5v-124z" />
    <glyph glyph-name="uni2476" unicode="&#x2476;" 
d="M1844 -231h-240q27 59 41 94t39.5 114.5t36.5 126t27.5 139t24.5 159t9 131t-0.5 157.5t-4.5 128t-22.5 144t-26.5 141l-33 115q-35 120 -38 128l-45 102h232q26 -80 42.5 -133t32 -117.5t27.5 -147.5t21 -180.5t11 -172t1 -144t-4 -120.5t-14 -129t-31.5 -192.5
t-34 -165t-34.5 -121.5l-17 -56v0zM60 545q-1 93 0 156.5t10.5 171.5t20.5 181.5t30.5 154t34.5 123.5l39 120h232q-32 -68 -42 -95.5t-40.5 -131.5t-34 -120t-25.5 -136t-24.5 -147.5t-2.5 -106.5l-2 -155q0 -84 9 -159t24.5 -157.5t29 -140t38.5 -134.5t39 -107l39 -89
h-240q-11 36 -16 55l-32 104q-17 57 -40 188t-31 193.5t-11 115.5t-5 116zM844 511v213l124 2q58 0 73.5 14.5t25 36t14.5 83.5t4 83q-3 24 -12 44t-20.5 28t-45.5 11l-23 2q-30 2 -48 -16t-21 -28.5t-9 -44t-6 -38.5l-1 -74l-267 2q-1 24 -0.5 64t4 87.5t12.5 98.5
t43 102.5t82 63t87 12.5l270 1q40 0 75.5 -14.5t74 -53t55.5 -90t24.5 -128.5t1.5 -143q-9 -87 -31 -122l-34 -60q26 -39 42.5 -71t29 -112t5.5 -178q-8 -96 -35 -164.5t-70.5 -104.5t-86 -44.5t-67.5 -8.5h-193q-83 0 -140 16t-89.5 57t-44 98.5t-13 109.5t-1.5 78v59h269
l1 -55q1 -59 11.5 -87t29 -44.5t39.5 -16.5h19q21 0 41.5 17.5t30 43.5t12.5 60t4 51.5t-2 44.5l-6 38q-4 28 -10.5 42t-23.5 23.5t-75 10.5z" />
    <glyph glyph-name="uni2477" unicode="&#x2477;" 
d="M86 552q-1 92 0 156t10.5 172t20.5 181t31 155t34 123l39 119h232q-32 -68 -42.5 -96.5t-40.5 -131.5t-33.5 -119t-25.5 -136t-24.5 -147.5t-2.5 -106.5l-2 -154q0 -85 9 -160t24.5 -157.5t29 -140t38.5 -134.5t39 -107l39 -89h-240q-11 36 -16 55l-32 105
q-17 58 -39.5 188t-31 193.5t-11.5 116t-5 115.5zM1821 -225h-240q26 59 41.5 97t39.5 111.5t35.5 123.5t28 141t25 160.5t9.5 155.5l-2 154q-1 79 -4 111.5t-22.5 141t-25.5 132t-36 129.5t-36 120l-45 102h232q26 -80 42 -130.5t32.5 -120t29 -150.5t20.5 -174t10 -178
t0.5 -143t-5 -119.5t-12.5 -127.5t-31 -190t-33 -164.5t-36 -125.5l-17 -56v0zM1293 1284l1 -854h117l-62 -232l-55 -1v-169l-279 -62v232l-430 -1v273l429 814h279zM869 430h147v300z" />
    <glyph glyph-name="uni2478" unicode="&#x2478;" 
d="M1844 -227h-240q26 58 41.5 96t39 111t35 123.5t28 141.5t24.5 159t9 114.5t0 159.5t-3.5 142t-24.5 149t-25.5 136t-35.5 125.5t-36 119.5l-44 102h232q26 -80 41 -128t32.5 -122.5t29 -150t21 -177.5t11 -176t-0.5 -139t-5.5 -123t-13 -131t-30 -189t-38.5 -183
l-31 -105l-16 -55v0zM87 545q-1 93 0 156.5t10.5 171.5t20.5 181.5t30.5 154t34.5 123.5l39 120h232q-32 -68 -42 -95.5t-40.5 -131.5t-34 -120t-25.5 -136t-24.5 -147.5t-2.5 -106.5l-2 -155q0 -84 9 -159t24.5 -157.5t29 -140t38.5 -134.5t39 -107l39 -89h-240
q-11 36 -16 55l-32 104q-17 57 -40 188t-31 193.5t-11 115.5t-5 116zM700 464l2 795h708l-82 -230h-367v-242q19 11 26.5 13.5t29.5 8.5l33 8h136q63 -1 106 -16.5t76 -72t43.5 -119t12 -151t0.5 -143.5q-3 -106 -26.5 -187.5t-76 -119.5t-129.5 -47.5t-194 -3.5
q-81 4 -131 20t-88 56t-58 100.5t-21 130.5l-4 115h265q3 -47 6 -73t8 -41t15 -31.5t27.5 -28.5t41.5 -13q21 -2 43 9t33 33.5t14 71.5l4 73q2 53 1 85q-3 38 -13.5 69.5t-30.5 47.5t-41 16h-15q-32 0 -54 -19t-32.5 -40t-10.5 -34l-3 -40h-254z" />
    <glyph glyph-name="uni2479" unicode="&#x2479;" 
d="M80 548q-1 93 0 157t10.5 171t20.5 181t30.5 155t34.5 123l39 119h232q-32 -68 -42 -95t-40.5 -131.5t-34 -120t-25.5 -135.5t-24.5 -147.5t-2.5 -106.5l-2 -154q0 -85 9 -160t24.5 -157.5t29 -140t38 -134t39.5 -107.5l39 -90h-240q-11 37 -16 56l-32 105
q-17 58 -39.5 186.5t-31 193t-11.5 117t-5 115.5zM1831 -228h-240q27 58 41.5 94t38.5 112t37 131t27 132.5t23 155.5t10 124t0 157.5t-3.5 141.5t-24 148t-26 137t-36 125.5t-35.5 117.5l-44 103h232q26 -80 42 -131.5t32 -118t28.5 -149t21 -179t10.5 -176.5t0.5 -142
t-5 -118t-13.5 -131t-30.5 -191.5t-38.5 -183.5l-31 -103l-16 -56v0zM1399 822h-277q-1 52 0 99.5t-6 74.5q-7 23 -21.5 36t-37.5 13h-34q-32 0 -49.5 -10.5t-24.5 -28.5t-10.5 -61t-3.5 -109q-1 -30 -0.5 -57.5t0 -46.5t1.5 -18l11 15q6 7 29.5 12t28.5 5.5t45 0.5h94
q53 0 111.5 -12.5t85.5 -50t42 -85t21.5 -112.5t3.5 -166q-4 -81 -15.5 -150t-53 -126.5t-100.5 -73.5t-176 -17q-163 -2 -217 13.5t-96 58t-57.5 92.5t-19.5 130t-4 125l-1 524q-1 15 6 74.5t17 108.5t43.5 99.5t82 69.5t115.5 19h202q47 0 103 -15.5t92.5 -49.5t48.5 -105
t16.5 -136t4.5 -99v-41v0zM1035 184q37 1 53.5 9.5t31.5 44t13 105.5l-3 66q-2 31 -7 53.5t-23 37t-57 17.5q-46 2 -65 -10t-30 -34t-12.5 -86.5t0.5 -89.5q2 -43 12.5 -69.5t25.5 -36t61 -7.5z" />
    <glyph glyph-name="uni247A" unicode="&#x247a;" 
d="M1826 -235h-240q27 58 41.5 94t38.5 112.5t36.5 130t27 133t23.5 156.5t10 120.5t0 157.5t-3 139t-24 150.5t-24.5 135.5t-37.5 127.5t-36 120.5l-44 102h232q26 -80 43.5 -134.5t31.5 -113t27.5 -151.5t22.5 -183t10.5 -168.5t-0.5 -143.5t-5.5 -122.5t-13 -131
t-30.5 -187.5t-35 -168.5t-34 -119.5l-17 -56v0zM92 542q-1 92 0 156.5t10.5 171t20.5 181.5t30.5 153.5t34.5 123.5l39 120h232q-32 -68 -42.5 -97.5t-40 -129.5t-33.5 -117t-26 -139t-24.5 -149t-2.5 -106l-2 -154q0 -84 9 -159t24.5 -157.5t29 -140t38.5 -134.5t39 -107
l39 -89h-240q-11 36 -16 55l-32 104q-16 56 -39.5 189.5t-31.5 194t-11 113.5t-5 117zM1116 1021l-417 -2v245h715v-264l-422 -1046l-301 -1z" />
    <glyph glyph-name="uni247B" unicode="&#x247b;" 
d="M73 545q-1 93 0 157t10.5 171t20.5 181t30.5 155t34.5 123l39 119h232q-32 -68 -42.5 -97.5t-40 -129.5t-34 -119t-26 -137t-24 -146.5t-2.5 -107.5l-2 -154q0 -85 9.5 -161t24.5 -156.5t28.5 -138t38.5 -136t39 -107.5l39 -89h-240q-11 37 -16 56l-32 103
q-16 55 -39.5 190.5t-31.5 194.5t-11 112.5t-5 116.5zM1840 -231h-241q27 58 41.5 93t39.5 113.5t36.5 128.5t27.5 136.5t24 155.5t10 160l-1 154q-1 75 -3.5 104t-24.5 150.5t-26 139t-35.5 124t-35.5 117.5l-44 103h232q26 -80 42.5 -133t32 -117.5t28 -148t21 -179.5
t10.5 -176.5t0.5 -142.5t-5 -117t-13.5 -132t-30.5 -191.5t-38.5 -182.5l-31 -104l-16 -55v0zM1286 629q19 -15 33 -26.5t25.5 -28t26.5 -52t15.5 -131t-2.5 -146.5q-4 -54 -15 -108.5t-41.5 -100t-73 -64t-89.5 -18.5h-257q-58 0 -96.5 5.5t-66 23t-49.5 54t-33.5 79
t-15.5 117t-1 171.5q2 80 19 129t46 68l35 26q-18 12 -43 35.5t-36.5 70.5t-14.5 145t11 182q9 58 39 113.5t82.5 71.5t85.5 16h260q64 0 113.5 -14t76.5 -59.5t39 -102.5t17 -150t-11 -177q-11 -55 -26.5 -76t-28.5 -32l-24 -21v0zM1029 189q39 0 52 9.5t16.5 19.5
t5.5 31.5t2 40.5v111q0 33 -7.5 50t-24 27t-49.5 10h-24q-43 0 -58.5 -12.5t-23 -38.5t-6.5 -48l1 -91q0 -47 7.5 -68t24.5 -30.5t38 -9.5zM1027 756q27 6 40 15.5t24 41.5t11 66l-1 72q-1 20 -7.5 39.5t-22 30.5t-50.5 11h-25q-28 0 -47.5 -13t-27 -23.5t-7.5 -43.5v-87
q0 -39 2 -57.5t18 -35t57 -16.5h36z" />
    <glyph glyph-name="uni247C" unicode="&#x247c;" 
d="M1823 -228h-241q27 58 42.5 96t38 109t36.5 129.5t28 135t23 155t10 125t0 157.5t-3.5 142t-24.5 148.5t-27.5 142.5t-34 121.5t-35.5 114.5l-44 103h232q26 -80 42 -131.5t32 -118t28.5 -149t21 -179t10.5 -176.5t0.5 -141.5t-5 -119.5t-12.5 -122.5t-31.5 -194.5
t-38.5 -188l-31 -103l-16 -56v0zM80 545q-1 93 0 157t10.5 171t20.5 181t30.5 155t34.5 123l39 119h232q-32 -68 -42.5 -97.5t-40 -129.5t-34 -119t-26 -137t-24 -146.5t-2.5 -107.5l-2 -154q0 -85 9.5 -161t24.5 -156.5t28.5 -138t38.5 -136t39 -107.5l39 -89h-240
q-11 37 -16 56l-32 103q-16 55 -39.5 190.5t-31.5 194.5t-11 112.5t-5 116.5zM1404 830v-451q0 -118 -8.5 -187t-41.5 -129.5t-81.5 -80t-167.5 -19.5h-199q-67 0 -108.5 9t-72 38t-43.5 73t-20 101.5t-5 128.5l1 66h258v-91q0 -40 8.5 -58t26 -23.5t75.5 -2.5q31 1 48 4.5
t30 23t13 91.5v174q-22 -9 -37.5 -13t-102.5 -6.5t-110 1.5q-64 8 -107 39.5t-66 79.5t-29 104t-7 141.5t5 156.5q4 57 17.5 106t48.5 89t83.5 57t119.5 17h186q49 0 104.5 -15.5t99 -61.5t60 -112t18.5 -124l4 -126v0zM1040 1038h-41q-23 0 -41.5 -10.5t-26.5 -32.5
t-10 -56t-1 -76q0 -34 2 -71.5t16.5 -52t34.5 -17t59 -0.5q39 1 51.5 7t23.5 19t11.5 53t0.5 54l-2 101q-1 25 -10.5 45t-25 28.5t-41.5 8.5z" />
    <glyph glyph-name="uni247D" unicode="&#x247d;" 
d="M74 548q-1 93 0 157t10.5 171t20.5 181t30.5 155t34.5 123l39 119h232q-32 -68 -42 -95t-40.5 -131.5t-34 -120t-25.5 -135.5t-24.5 -147.5t-2.5 -106.5l-2 -154q0 -85 9 -160t24.5 -157.5t29 -140t38 -134t39.5 -107.5l39 -90h-240q-11 37 -16 56l-32 105
q-17 58 -39.5 186.5t-31 193t-11.5 117t-5 115.5zM1831 -221h-241q27 58 42 94.5t38 111t36 128t28.5 136.5t24.5 158t10 160l-2 154q-1 79 -3 102.5t-24 149.5t-24 133t-37 127t-36 123l-44 102h232q25 -80 42.5 -135.5t32.5 -116.5t27 -144t21.5 -183t11 -174.5t-0.5 -140
t-5.5 -124t-12 -123.5t-31 -191.5t-38.5 -186.5l-31 -105l-16 -55v0zM1201 1264l183 1q23 0 72 -16t84 -50t48.5 -90t18.5 -130.5t5 -92.5v-504q0 -43 -3 -121t-32 -158.5t-102.5 -112t-151.5 -31.5h-135q-34 0 -75.5 9t-97.5 50.5t-70.5 106.5t-15.5 161l-3 115v494
q0 23 4 96.5t13 113t44 79.5t84.5 59.5t129.5 20.5zM1194 407q2 -81 2.5 -121.5t6.5 -59.5t18 -31t40 -15t47 15q11 11 15 28.5t3.5 34t-0.5 132.5v479l-2 85q-1 33 -5.5 47.5t-17.5 29.5t-27 15h-20q-17 0 -30 -12t-19 -30t-8.5 -47.5t-2.5 -85.5v-464zM550 1044h-109
l1 220h385l-2 -1264l-277 -73z" />
    <glyph glyph-name="uni247E" unicode="&#x247e;" 
d="M1817 -231h-240q27 58 41 93t40 115t36.5 126t27 138.5t24.5 159t9 129.5t-0.5 157.5t-4 125t-24 150t-24.5 133.5t-36 127.5t-36 121.5l-45 103h232q26 -80 42.5 -133t32 -117.5t27.5 -147.5t21 -181t11 -171t1 -145t-4 -118.5t-15.5 -136.5t-30.5 -192.5t-34.5 -163.5
t-33.5 -118l-17 -55v0zM92 548q-1 93 0 157t10.5 171t20.5 181t30.5 155t34.5 123l39 119h232q-32 -68 -42 -95t-40.5 -131.5t-34 -120t-25.5 -135.5t-24.5 -147.5t-2.5 -106.5l-2 -154q0 -85 9 -160t24.5 -157.5t29 -140t38 -134t39.5 -107.5l39 -90h-240q-11 37 -16 56
l-32 105q-17 58 -39.5 186.5t-31 193t-11.5 117t-5 115.5zM652 1038h-158v219h432v-1243l-274 -74v1098zM1226 1041h-158v220h432v-1240l-274 -73v1093z" />
    <glyph glyph-name="uni247F" unicode="&#x247f;" 
d="M92 548q-1 93 0 157t10.5 171t20.5 181t30.5 155t34.5 123l39 119h232q-32 -68 -42.5 -96.5t-41 -133t-38.5 -137t-25 -146t-21.5 -205.5t-2.5 -178t10 -157t23.5 -154t29 -140.5t38 -134t39.5 -107.5l39 -90h-240q-11 37 -16 56l-32 105q-17 58 -39.5 186.5t-31 193
t-11.5 117t-5 115.5zM1831 -218h-240q27 58 41.5 94t38.5 112.5t36.5 129t28 137t21 138.5t10 162t3 160.5t-9.5 119.5t-20.5 147t-20.5 113.5t-39.5 142.5t-36.5 121l-44 103h232q26 -80 42 -132.5t32 -117.5t28.5 -150t22 -180.5t11 -171t-0.5 -142.5t-5.5 -120.5
t-14 -132.5t-30.5 -192t-38 -181l-31 -104l-16 -56v0zM1168 787l-255 -2l1 86v120q1 68 16.5 123t48 88t79 51.5t94.5 18.5h210q37 0 86 -10t89 -44.5t60 -97.5t23 -141.5t3 -155.5q-1 -97 -15 -163t-61 -122.5t-114 -74.5t-134.5 -24t-89.5 -20.5t-29.5 -34.5t-7.5 -45v-67
l-1 -76l465 2l-72 -226l-650 2v334q0 96 9.5 151t44 102t78.5 67t107 29l98 12q40 6 58.5 19t28 36t10.5 70v77q1 89 -10 122q-12 32 -29 42t-30 10h-39q-27 0 -43 -16.5t-22.5 -36.5t-6.5 -80v-125zM541 1034h-101l-2 220h371l-1 -1234l-265 -73z" />
    <glyph glyph-name="uni2480" unicode="&#x2480;" 
d="M1101 517v222l132 -1q21 -1 39.5 18.5t30 49.5t13 87t-2.5 97q-3 23 -10.5 36t-23.5 21t-34 6q-31 -4 -43 -21t-17 -54.5t-4 -48.5l2 -85l-272 1q-1 25 -0.5 63t4 88t12 96.5t34 91.5t68.5 67t90 22h258q57 0 92 -14t72.5 -51.5t55 -84.5t22.5 -112t5 -110
q-1 -135 -32 -185l-34 -60q24 -39 35.5 -62t19.5 -51t13.5 -66t5.5 -110q-1 -62 -5 -99t-14 -84t-23.5 -76.5t-36.5 -57t-45 -42t-53 -25t-69 -10.5h-174q-55 0 -111.5 3.5t-95.5 27t-57.5 58t-26.5 75t-9 78.5l1 121v60l270 2q-1 -39 -0.5 -57t3.5 -60t12.5 -56.5t25 -20.5
t27.5 -4q29 3 44 29.5t16 46t1.5 76t-0.5 73.5q-3 20 -7 33t-15.5 36.5t-51.5 23.5zM79 548q-1 93 0 157t10.5 171t20.5 181t30.5 155t34.5 123l39 119h232q-32 -68 -42 -95t-40.5 -131.5t-34 -119t-25.5 -136.5t-24.5 -148.5t-2.5 -106.5l-2 -153q0 -86 9 -159.5t25 -158.5
t28.5 -139t38.5 -134.5t39 -108.5l39 -89h-240q-11 37 -16 56l-32 104q-17 57 -40 188.5t-31 193.5t-11 115t-5 116zM1842 -228h-241q27 58 41 92.5t40 116.5t36.5 127.5t27 136t24.5 158.5t9 115.5t0 159.5t-3.5 142t-24 148t-26 137t-36 125.5t-35.5 117.5l-44 103h232
q26 -80 42 -132t31.5 -116t29 -153t21.5 -175t10 -174t0.5 -147.5t-5 -117.5t-12.5 -122.5t-31.5 -194.5t-38.5 -188l-31 -103l-16 -56v0zM545 1035h-108l1 220h368v-1241l-259 -77z" />
    <glyph glyph-name="uni2481" unicode="&#x2481;" 
d="M1824 -221h-241q27 58 42 94.5t39.5 112t36 125t28 140.5t25 160.5t9.5 155.5l-2 154q-1 79 -4 112t-22.5 141t-27 138t-35.5 128t-36 116l-44 102h232q26 -80 41.5 -130.5t32.5 -120t29.5 -149.5t20.5 -174.5t10 -179t0.5 -143t-5 -119t-12 -126.5t-31 -191t-35 -171
t-34.5 -120l-17 -55v0zM104 548q-1 93 0 157t10.5 171t20.5 181t30.5 155t34.5 123l39 119h232q-32 -68 -42 -95t-40.5 -131.5t-34 -120t-25.5 -135.5t-24.5 -147.5t-2.5 -106.5l-2 -154q0 -85 9 -160t24.5 -157.5t29 -140t38 -134t39.5 -107.5l39 -90h-240q-11 37 -16 56
l-32 105q-17 58 -39.5 186.5t-31 193t-11.5 117t-5 115.5zM547 1038h-105l1 220h368v-1237l-262 -77zM1553 1260v-868h121l-59 -221h-62v-156l-267 -81v237l-411 -1v265l427 825h251zM1132 392l155 1v324z" />
    <glyph glyph-name="uni2482" unicode="&#x2482;" 
d="M929 476l-1 785h661l-59 -223l-343 -1l-1 -252q35 28 44 28l59 5h101q59 1 83.5 -8.5t52 -33.5t50 -61t32.5 -99t12 -172t-7 -211q-9 -96 -44.5 -159.5t-105.5 -87t-232 -15.5q-91 4 -133.5 9t-84.5 35.5t-63 91.5t-23 160l-4 125h259q0 -56 -0.5 -98.5t15 -69
t50.5 -31.5q17 -3 44 5.5t41.5 26t19.5 85t-1 187.5q-3 52 -18 70t-37 24.5t-44.5 6t-40.5 -14.5q-26 -21 -25 -44l-4 -63h-253zM87 548q-1 93 0 157t10.5 171t20.5 181t30.5 155t34.5 123l39 119h232q-32 -68 -42 -95t-40.5 -131.5t-34 -120t-25.5 -135.5t-24.5 -147.5
t-2.5 -106.5l-2 -154q0 -85 9 -160t24.5 -157.5t29 -140t38 -134t39.5 -107.5l39 -90h-240q-11 37 -16 56l-32 105q-17 58 -39.5 186.5t-31 193t-11.5 117t-5 115.5zM1824 -225h-241q27 59 42 96t39.5 111.5t36.5 126.5t27 136.5t24 159.5t10 135t-0.5 155.5t-4 126.5
t-24 149t-26 137t-35 125t-35.5 119l-45 102h232q26 -80 42 -131.5t32 -118t28.5 -149t21 -178.5t10.5 -177t0.5 -140.5t-5 -120t-13 -133t-30.5 -187t-36 -171t-33 -117.5l-17 -56v0zM542 1035h-98v219h369v-1237l-269 -77z" />
    <glyph glyph-name="uni2483" unicode="&#x2483;" 
d="M1622 830h-274q-1 52 0.5 100t-6.5 74q-7 21 -21 34.5t-29 13.5h-35q-30 0 -48 -10.5t-25 -28t-10 -75t-3 -94.5q-1 -34 0 -49l2 -74q12 13 22.5 19.5t37.5 10.5t65 4h64q79 0 99 -4t40 -15.5t38.5 -27t32 -34t25 -56t18 -74t10 -80t0.5 -134.5q-3 -56 -6 -85t-8.5 -59.5
t-17.5 -65.5t-29 -62t-33.5 -41.5t-42.5 -26.5t-49.5 -16.5t-107 -6.5t-121.5 -1q-52 1 -92.5 7t-66 17.5t-44 29t-29.5 33t-25.5 45t-24 72.5t-13 90.5t-3.5 120.5l-1 523q-1 18 4 69.5t14 91.5t21 70t25.5 51.5t43 44.5t62.5 33t93 10h185q49 0 91 -12.5t65.5 -27.5
t41.5 -39t31.5 -54.5t19.5 -74t10 -105t4 -91.5v-40v0zM1258 192q35 0 53 9t32.5 44.5t13.5 105.5l-4 103q-2 32 -9 50t-23.5 28t-51.5 11q-41 0 -58.5 -11t-30 -35t-8.5 -93q1 -43 1.5 -93t9.5 -76t24 -35t51 -8zM79 542q-1 92 0 156.5t10.5 171t20.5 181.5t30.5 153.5
t34.5 123.5l39 120h232q-32 -68 -42.5 -97.5t-40 -129.5t-33.5 -117t-26 -139t-24.5 -149t-2.5 -106l-2 -154q0 -84 9 -159t24.5 -157.5t29 -140t38.5 -134.5t39 -107l39 -89h-240q-11 36 -16 55l-32 104q-16 56 -39.5 189.5t-31.5 194t-11 113.5t-5 117zM1824 -231h-241
q26 58 41 95.5t39.5 111.5t36 124t28 141.5t24.5 158.5t9 130t-0.5 157.5t-4 126t-24 151t-26.5 140.5t-34.5 123.5t-35.5 116.5l-45 103h233q25 -80 41.5 -133.5t33 -120.5t27.5 -143.5t20 -180t11 -180.5t0.5 -137.5t-5 -121.5t-12 -123t-31.5 -192t-38 -188l-31 -104
l-16 -55v0zM545 1035h-105l1 219h368v-1234l-262 -77z" />
    <glyph glyph-name="uni2484" unicode="&#x2484;" 
d="M1333 1034h-385v230h656v-263l-219 -598l-169 -441l-289 -2zM93 552q-1 92 0 156t10.5 172t20.5 181t31 155t34 123l39 119h232q-32 -68 -42.5 -96.5t-40.5 -131.5t-33.5 -119t-25.5 -136t-24.5 -147.5t-2.5 -106.5l-2 -154q0 -85 9 -160t24.5 -157.5t29 -140
t38.5 -134.5t39 -107l39 -89h-240q-11 36 -16 55l-32 105q-17 58 -39.5 188t-31 193.5t-11.5 116t-5 115.5zM1815 -221h-241q27 58 42 94t40 113.5t35.5 123t27.5 145t25 162.5t9 124.5t-0.5 157t-4 126t-24 148.5t-24 130t-36 128.5t-36.5 124.5l-45 102h232
q26 -80 42 -131.5t32 -118.5t28 -148t21 -179t11 -177.5t0.5 -141.5t-5 -117t-14 -134.5t-30 -191t-38.5 -180.5l-31 -105l-16 -55v0zM581 1048h-105l1 220h368v-1248l-262 -77z" />
    <glyph glyph-name="uni2485" unicode="&#x2485;" 
d="M1560 644q17 -23 34.5 -51t25 -67t6.5 -125l-2 -142q-3 -45 -10.5 -89t-17 -67.5t-37 -62.5t-53.5 -52.5t-91 -13.5h-249q-85 0 -109.5 5.5t-49.5 23t-46 52.5t-32.5 77t-15.5 113t-1 182q1 72 12 107t27 59l33 52q-17 20 -24.5 32.5t-17 40t-15 53.5t-8 80t-0.5 125
q0 34 4 92t39 112.5t82.5 72.5t84.5 18h250q63 0 110 -14t73 -58.5t38 -101t13.5 -105t1.5 -112.5q-1 -64 -7 -101.5t-17 -62.5l-31 -72v0zM1267 195q29 -3 43.5 4.5t20 23.5t9 38t4.5 56v34q0 96 -6 124q-3 13 -8.5 25t-17.5 20.5t-31 8.5h-28q-28 0 -41.5 -8t-23 -30.5
t-10.5 -67.5l-2 -62q-4 -92 13 -133q7 -20 16.5 -26.5t45.5 -6.5h16zM1280 747q26 4 36 12t17.5 25.5t10 41.5t2.5 51q-1 40 -5 85.5t-9.5 60t-15.5 24.5t-40 10h-42q-32 0 -45 -16.5t-14 -46.5l1 -131q-2 -41 0 -51q1 -11 4.5 -25t13.5 -27t47 -13h39zM86 538
q-1 92 0 156.5t10.5 171t20.5 181t30.5 155.5t34.5 123l39 119h232q-32 -68 -41.5 -94.5t-41 -133.5t-35 -121t-25 -134t-24 -147.5t-2.5 -106.5l-2 -154q0 -85 9 -160t24.5 -158t28.5 -138t39 -135t39 -108l39 -89h-240q-11 37 -16 56l-32 104q-17 58 -39.5 187t-31 193.5
t-11.5 117t-5 115.5zM1815 -235h-240q26 58 41 94.5t40 113.5t36 124.5t27.5 140t24.5 159t9 130t-0.5 158t-4 126t-24 149.5t-25.5 135.5t-35 126t-36 120.5l-45 102h232q26 -80 41.5 -130.5t33 -121.5t28.5 -146t20 -179t11 -181t0.5 -137.5t-5 -120t-13 -132.5
t-30.5 -187t-35 -168.5t-34 -119.5l-17 -56v0zM544 1035h-105l1 219h368v-1234l-262 -77z" />
    <glyph glyph-name="uni2486" unicode="&#x2486;" 
d="M1624 797l3 -416q-3 -94 -6.5 -172.5t-43 -146.5t-109.5 -79.5t-106 -11.5h-211q-81 0 -124 19t-68.5 67t-34 100t-8.5 163v64l257 1q1 -22 2 -42.5t-0.5 -58.5t8.5 -59t26 -24.5t42 -1.5l42 2q31 5 41.5 21.5t13.5 50.5l3 41l-1 193q-19 -8 -35 -13.5t-66 -10t-101 -0.5
q-72 4 -110.5 27t-68.5 69t-45 149.5t-4 235.5q5 72 17.5 115t35 82.5t44.5 56t59.5 32.5t73.5 16h201q41 0 75.5 -8.5t65 -27t51.5 -44t37 -61t25 -70t11 -78.5l8 -180v0zM1286 1048h-27q-35 0 -51.5 -11.5t-23.5 -29t-7.5 -63.5t-3.5 -100t8 -84q9 -29 24.5 -38t53.5 -9h5
q32 0 50 10t25.5 31t10 40t2.5 60q-1 87 -10.5 127t-24.5 53.5t-31 13.5zM71 535q-1 92 0 156.5t10.5 171.5t20.5 180.5t30.5 154t34.5 123.5l39 120h232q-32 -68 -42 -95.5t-40.5 -131.5t-34 -120t-25.5 -136t-24.5 -147.5t-2.5 -107.5l-2 -153q0 -86 9 -160.5t24.5 -157.5
t28.5 -138.5t38.5 -135.5t39.5 -108l39 -88h-240q-11 36 -16 55l-32 104q-17 57 -40 188t-31 193.5t-11 116t-5 116.5zM1830 -228h-241q27 58 40 90.5t41.5 120t37.5 127t26 138.5t25 163.5t10 148.5l-2 154q-1 79 -3.5 107.5t-24 146.5t-24.5 130t-36 126.5t-36 123.5
l-46 103h233q26 -80 42 -131.5t32 -118t28 -148t21.5 -182.5t10.5 -167.5t-0.5 -144t-4 -125t-13.5 -127t-31 -194.5t-38 -182l-31 -103l-16 -56v0zM543 1038h-104l1 219h368v-1247l-263 -77z" />
    <glyph glyph-name="uni2487" unicode="&#x2487;" 
d="M663 776h-238v37v37q0 104 2.5 161t21.5 106t41 76t40 38.5t42.5 18.5t51.5 7h193q24 0 78 -20t88 -98t36 -150l-1 -63l2 -97q0 -53 -7 -118q-8 -71 -26.5 -116t-67.5 -89.5t-116.5 -55t-84.5 -18t-29 -27t-15 -48t-3 -69.5v-109h350l-76 -213h-520v336q0 123 7.5 177
t41.5 92t70 52.5t84.5 22t70.5 15.5t30.5 21t13.5 42.5t6 53t2 80t-5 125.5q-3 25 -13 41t-25.5 16.5t-26.5 -16.5q-9 -13 -10 -47l-5 -75q-4 -48 -3 -90v-36v0zM1302 1261h155q31 0 69.5 -13.5t61 -41t34 -54.5t20 -61t10.5 -55t4 -85l2 -66v-504q0 -59 -2.5 -107t-10 -99
t-18 -78t-21.5 -45t-25.5 -35t-30.5 -27.5t-36.5 -17.5t-57 -11t-152.5 -1q-47 0 -76.5 7.5t-59 32t-46 51t-26.5 61.5t-14 79t-5.5 96t-1.5 113v493q0 35 3 100.5t7.5 94t13 50.5t27 45t44 40t53.5 27.5t79 10.5zM1325 404q1 -77 0.5 -117.5t2.5 -56.5q0 -6 4.5 -28.5
t13.5 -22.5h22q11 0 16 16t6 36.5t1.5 33t0.5 122.5v482v81l-2 45q-1 20 -7.5 36t-22.5 16h-14q-10 0 -14 -13t-5.5 -25t-0.5 -55l-1 -85v-465zM82 545q-1 93 0 156.5t10.5 171.5t20.5 181.5t30.5 154t34.5 123.5l39 120h232q-32 -68 -42 -95.5t-40.5 -131.5t-34 -120
t-25.5 -136t-24.5 -147.5t-2.5 -106.5l-2 -155q0 -84 9 -159t24.5 -157.5t29 -140t38.5 -134.5t39 -107l39 -89h-240q-11 36 -16 55l-32 104q-17 57 -40 188t-31 193.5t-11 115.5t-5 116zM1832 -231h-241q27 59 41.5 94.5t39 113.5t36.5 128t28 136t24 155.5t10 160.5
l-1 153q-1 76 -3.5 104.5t-24 150t-25.5 138.5l-33 115q-35 121 -38 128l-46 102h233q25 -80 42.5 -137t32.5 -115.5t27 -143.5t21.5 -184.5t10.5 -166.5t-0.5 -144.5t-4 -124.5t-13.5 -128t-31 -194.5t-38 -181.5l-31 -103l-16 -56v0z" />
    <glyph glyph-name="uni2488" unicode="&#x2488;" 
d="M1275 265q38 0 73.5 -19t56.5 -56.5t21.5 -76.5t-20.5 -75q-21 -35 -56 -55.5t-75 -19.5q-40 0 -76 20t-56 54.5t-19 76.5q0 39 20.5 75.5t56.5 55.5t74 20zM663 1045h-156v220h433l-2 -1240l-277 -73z" />
    <glyph glyph-name="uni2489" unicode="&#x2489;" 
d="M515 775l-257 -1l-1 86q0 84 1 138t16 107t49 86.5t82 52.5t96 19h197q37 0 86.5 -8t91.5 -49t62 -112t23.5 -142.5t3.5 -140.5q-1 -98 -15 -164t-62 -122t-118.5 -75.5t-130.5 -25.5t-81.5 -19.5t-29.5 -34.5t-9 -39t0 -58l1 -90h456l-88 -227l-630 -1l-1 342
q0 97 9.5 152.5t45 102t80.5 67t98 29.5l103 12q41 5 59 18t28.5 37t11.5 70v66q1 95 -11 129q-13 34 -30 43t-40 9h-23q-27 0 -43.5 -16.5t-23 -36.5t-6.5 -80v-124zM1297 254q38 0 73.5 -19t57 -57.5t21.5 -74.5q-1 -41 -21.5 -76t-55 -55t-75.5 -19q-42 0 -76.5 20
t-55 54t-19.5 76q0 40 20 76.5t56 55t75 19.5z" />
    <glyph glyph-name="uni248A" unicode="&#x248a;" 
d="M464 507v221h124q56 0 71 14t25.5 35.5t14 38.5t5.5 54t1 68q-2 32 -10 51.5t-24.5 29.5t-44.5 10h-24q-34 0 -48 -15.5t-19.5 -34t-9 -39t-3.5 -36.5l-3 -74h-265v69t3 86t12.5 94.5t42.5 104t80.5 63.5t86.5 12h269q39 0 75 -14.5t74.5 -52t55.5 -90t24.5 -127
t1.5 -143.5q-9 -95 -32 -132l-34 -60q26 -39 42.5 -71t29 -111.5t5.5 -174.5t-34.5 -163.5t-71 -104.5t-85.5 -44.5t-67 -8.5h-191q-83 0 -140 16t-89.5 57t-45 101.5t-12.5 94.5v89v59h268v-55q0 -55 11 -84.5t29.5 -46t39.5 -16.5h19q21 0 41.5 17.5t29.5 42t12 61.5
t4.5 56t-2.5 57q-4 27 -13 51t-25.5 34.5t-76.5 10.5h-127zM1303 269q37 0 73 -19t57 -55.5t21 -76.5q-1 -41 -21 -76.5t-54.5 -55.5t-75.5 -19q-42 0 -77 19.5t-55 54.5t-20.5 76t20.5 77t57.5 55t74.5 20z" />
    <glyph glyph-name="uni248B" unicode="&#x248b;" 
d="M929 1271l1 -854h118l-62 -232l-56 -1v-169l-278 -62v232l-430 -1v273l428 814h279zM505 417h148v300zM1297 265q37 0 73.5 -19.5t57 -56t21 -77t-19.5 -74.5q-20 -35 -56.5 -55.5t-75.5 -19.5q-40 0 -75 20t-56 55t-20 76q0 38 21 75.5t56.5 56t73.5 19.5z" />
    <glyph glyph-name="uni248C" unicode="&#x248c;" 
d="M267 472l1 792h708l-82 -230l-366 -1v-241q18 11 26 14t29 8l34 8h135q63 -2 106.5 -18t76.5 -71t43.5 -118.5t12 -151.5t0.5 -143q-3 -106 -26.5 -187.5t-76 -119.5t-127.5 -47.5t-197 -3.5q-82 3 -130.5 18.5t-88 57t-58.5 98.5t-20 132l-4 113h264q0 -55 4.5 -76
t10.5 -36t15.5 -31.5t26.5 -28t41 -12.5q21 -2 43 9t33 32.5t14 72.5l5 73q2 42 0 84q-3 41 -13 71.5t-30 46t-42 15.5h-14q-35 0 -55 -17.5t-31 -39.5t-11 -29l-4 -44zM1278 280q37 0 73 -19t57 -56t21.5 -77t-20.5 -75t-56 -55.5t-75 -19.5q-40 0 -76 20t-56 54.5
t-19 76.5q0 41 20.5 76.5t57 54.5t73.5 20z" />
    <glyph glyph-name="uni248D" unicode="&#x248d;" 
d="M992 824h-278q-1 52 0.5 100t-5.5 74q-7 23 -22 36t-38 13h-34q-31 0 -48 -11t-25 -29t-11 -49.5t-3 -119.5q-1 -38 -0.5 -62t0 -42.5t1.5 -17.5l11 15q6 7 27.5 12t28.5 5.5t46 0.5h95q53 0 112 -12.5t85 -50t41 -85t22 -115t4 -163.5q-4 -79 -16.5 -149.5t-53.5 -127.5
t-99.5 -73t-176.5 -17q-164 -2 -217 13.5t-95 58t-58 93t-20 127.5t-4 126v525q0 18 4.5 68t16 106.5t45.5 107.5t83 70t114 19h202q49 0 104 -15.5t91 -49.5t49 -107t17.5 -133.5t4.5 -99.5v-41v0zM628 186h-2l50 6q28 8 38.5 59.5t11.5 93.5l-3 66q-2 33 -6.5 54.5
t-22.5 36t-58 17.5q-47 2 -66 -10t-30 -34t-11.5 -92.5t0.5 -84.5q1 -42 11.5 -69t49.5 -51.5t38 8.5zM1295 254q38 0 73.5 -19t57 -57.5t21.5 -74.5q-1 -41 -21.5 -76t-55 -55t-75.5 -19q-42 0 -76.5 20t-55 54t-19.5 76q0 40 20 76.5t56 55t75 19.5z" />
    <glyph glyph-name="uni248E" unicode="&#x248e;" 
d="M685 1024l-417 -1v245h715v-264l-422 -1047l-301 -1zM1287 269q37 -1 72.5 -19.5t57 -55.5t21.5 -76q-1 -40 -21.5 -76.5t-55 -55.5t-74.5 -19q-41 -1 -76.5 19t-55.5 55t-20.5 76t20.5 77t57.5 55.5t74.5 19.5z" />
    <glyph glyph-name="uni248F" unicode="&#x248f;" 
d="M895 630q20 -15 34.5 -27t25 -27t25 -54t15.5 -126t-2 -149q-4 -58 -14 -110.5t-41.5 -99t-73.5 -64t-89 -17.5h-257q-65 0 -99.5 5t-62.5 22.5t-50.5 54t-34 80t-15 115t-0.5 173.5q2 80 19 128t46 68l34 26q-18 12 -43 35.5t-36 71t-15 145t11 181.5q9 58 40 113.5
t83 71.5t85 16h260q64 0 113 -14t75.5 -59.5t39.5 -103t18 -149.5t-12 -177q-12 -54 -28 -77t-26 -31l-25 -21v0zM639 190q40 -1 52 9t15.5 20.5t5.5 29t2 42.5v111q0 32 -7.5 50t-23.5 27.5t-49 9.5h-24q-43 0 -58.5 -12.5t-23 -38.5t-6.5 -48l1 -91q0 -45 7.5 -67
t24 -31.5t38.5 -9.5zM637 757q26 6 39.5 16t24 39.5t10.5 67.5v72q0 20 -7.5 39.5t-23.5 30.5t-49 11h-26q-25 0 -46 -13t-28 -23t-7 -44v-87q0 -47 1.5 -61.5t18 -31t57.5 -16.5h36zM1301 269q37 0 73 -19t57.5 -56t21.5 -76q-1 -40 -21.5 -76.5t-55 -56t-75.5 -18.5
q-41 0 -76 19.5t-55 54.5t-20.5 76t20.5 77t57.5 55t73.5 20z" />
    <glyph glyph-name="uni2490" unicode="&#x2490;" 
d="M974 827v-451q0 -118 -8.5 -187t-41.5 -129t-81.5 -80t-167.5 -20h-199q-68 0 -108 9t-71.5 38t-45 73t-18.5 93.5t-5 136.5v66h259v-91q0 -40 8.5 -58t26 -23.5t74.5 -2.5q32 1 48.5 4.5t30 23.5t13.5 91v174q-22 -9 -37.5 -13t-103.5 -6.5t-110 1.5q-64 8 -107 39.5
t-66 79.5t-29 105t-6.5 135.5t5.5 161.5q4 60 17 107t49 87.5t83 57.5t120 17h185q50 0 105 -15t99.5 -62t60 -110t17.5 -126l4 -126v0zM610 1035h-40q-23 0 -42 -10.5t-27 -32.5t-10 -55t-1 -77q0 -36 2.5 -72.5t17 -51t34 -17t59.5 -0.5q38 1 50.5 7t23.5 19t11.5 52
t0.5 55l-1 101q-1 24 -11.5 44.5t-25.5 29t-41 8.5zM1300 265q38 0 74 -19t56 -55t20.5 -77.5t-19.5 -75.5q-20 -35 -55.5 -55.5t-75.5 -19.5q-40 0 -76.5 20t-56.5 54.5t-19 76.5q0 41 20.5 76.5t57 54.5t74.5 20z" />
    <glyph glyph-name="uni2491" unicode="&#x2491;" 
d="M1130 1261l173 1q33 0 83 -14.5t86 -50t49.5 -91.5t18.5 -130.5t5 -92.5v-504q0 -38 -3 -119.5t-31 -160.5t-102 -111t-142 -32h-149q-36 0 -77 9t-96 50.5t-70.5 109t-16.5 158.5l-2 115v494q0 8 3.5 90t12 120t44 78.5t85 60t129.5 20.5zM1128 404l1.5 -121.5t7 -59.5
t18.5 -31t39.5 -15.5t46.5 15.5q11 11 15 29t4 34v132v479l-3 85q-1 33 -5.5 47.5t-17.5 29.5t-27 15h-20q-16 0 -29.5 -12.5t-19.5 -30t-8 -43t-2 -89.5v-464zM1750 254q36 -1 72.5 -20t57 -54t21 -77t-19.5 -76q-21 -34 -56.5 -54t-74.5 -20q-41 -1 -76 19t-55.5 55.5
t-21 75t21.5 76.5q21 37 57 56t74 19zM365 1041h-156v220h433l-2 -1240l-277 -73z" />
    <glyph glyph-name="uni2492" unicode="&#x2492;" 
d="M1735 273q37 -1 74 -20t56.5 -55t20 -78t-18.5 -75q-20 -35 -56 -54.5t-76 -19.5q-42 -1 -76.5 18.5t-55.5 55t-20 76.5q0 39 21 76.5t56.5 56.5t74.5 19zM364 1044h-154v220h431v-1240l-277 -73v1093zM1077 1044h-155v220h432v-1240l-277 -73v1093z" />
    <glyph glyph-name="uni2493" unicode="&#x2493;" 
d="M1752 258q37 -1 73 -20t57 -55.5t21 -76.5q-1 -41 -20.5 -75t-55.5 -54.5t-75 -20.5q-41 -1 -76 20t-55.5 55.5t-21 74t21.5 76.5q21 38 56.5 57t74.5 19zM1083 783l-263 -2l2 87v120q1 69 17 123.5t49.5 88t81.5 52.5t96 19h216q36 0 87.5 -11t92.5 -45t61 -97
t23.5 -143.5t3.5 -155.5q-1 -96 -16 -163.5t-62.5 -123.5t-118 -75t-138 -24.5t-89.5 -19.5t-30.5 -35t-8.5 -46v-67l-2 -76l478 2l-74 -227l-667 1v336q0 98 9.5 152.5t45 101.5t82 68t109.5 30l100 11q42 5 60 18.5t28.5 37.5t11.5 69v79q0 89 -11 122q-13 33 -29.5 42.5
t-30.5 9.5h-41q-27 0 -43.5 -16.5t-23 -36.5t-6.5 -80v-126zM366 1048h-159v217h433l-2 -1240l-274 -73z" />
    <glyph glyph-name="uni2494" unicode="&#x2494;" 
d="M1747 247q38 -1 74 -20t57 -55.5t21 -76.5q-1 -41 -21 -75.5t-55 -54.5t-76 -20q-42 -1 -76.5 19.5t-54.5 55.5t-20.5 75t20.5 76q21 37 56.5 56.5t74.5 19.5zM362 1048h-158v220h431v-1239l-273 -73v1092zM1031 514v222h115q59 0 76.5 16t28 37t14 41.5t5 64.5t0.5 60
q-3 25 -11 44t-19.5 32t-28.5 13h-49q-32 0 -49.5 -16.5t-20.5 -27t-9 -49t-6 -40.5v-69h-272q-1 25 -0.5 63t4 88.5t13 100t44.5 101.5t83.5 64.5t75.5 12.5h296q43 0 78.5 -14.5t75 -54t57 -91t24 -126t1.5 -144.5q-8 -99 -31 -133l-36 -60q27 -39 43.5 -70.5t30.5 -115.5
t8 -177q-7 -93 -35 -163t-71.5 -106t-87 -44.5t-69.5 -8.5h-207q-85 0 -142.5 16t-92 58t-45.5 108l-12 122q-5 48 -5 60v59h272q-1 -37 -0.5 -53.5t4 -44t12 -50.5t27 -39t39.5 -16l22 -1q21 -1 41.5 17t31 45.5t13 52.5t3 61t-4.5 74q-4 25 -12.5 42t-26.5 28t-53 11h-142
z" />
    <glyph glyph-name="uni2495" unicode="&#x2495;" 
d="M1751 262q36 -1 73 -20.5t57 -55.5t20.5 -76t-19.5 -75q-21 -35 -55.5 -55t-75.5 -20q-42 -1 -76.5 19t-55.5 56t-20 76q0 39 21 75t57.5 56t73.5 20zM365 1052h-159v213h433l-2 -1240l-274 -73zM1478 1267l-1 -871h132l-61 -225h-71v-153l-266 -81v234l-446 -1v269
l442 827zM1042 396h169v358z" />
    <glyph glyph-name="uni2496" unicode="&#x2496;" 
d="M1751 254q36 -1 72.5 -20t57 -55.5t21 -77t-19.5 -74.5q-21 -34 -56.5 -54t-74.5 -20q-41 -1 -76.5 19.5t-55.5 56t-20.5 75.5t20.5 75q21 36 57.5 55.5t74.5 19.5zM364 1048h-158v217h431v-1240l-273 -73v1096zM825 474v793h705l-67 -220h-371v-256q19 11 26.5 13.5
t29.5 8.5l33 8h156q54 -3 95 -17.5t74.5 -71t43.5 -118t12 -152t1 -139.5q-4 -107 -30 -189.5t-72.5 -119.5t-108.5 -43.5t-207 -3.5q-107 1 -156 16.5t-88.5 57t-58.5 98.5t-20 122l-5 126h275q4 -58 6 -89.5t6.5 -39t22 -28.5t26.5 -28t31 -9q24 -4 47.5 7.5t34.5 34.5
t12.5 49t4.5 91t2 96q-3 39 -13.5 71t-30.5 47t-41 15h-11q-31 0 -52 -18.5t-30.5 -39t-10.5 -37.5l-4 -35h-267z" />
    <glyph glyph-name="uni2497" unicode="&#x2497;" 
d="M1763 254q37 0 73 -19t57.5 -56t21.5 -76q-1 -41 -21.5 -76t-55.5 -55t-75 -19q-40 0 -75.5 20t-56 53.5t-19.5 76.5q0 41 20.5 76.5t57 54.5t73.5 20zM367 1048h-158v221h431v-1240l-273 -73v1092zM1572 823h-288q-1 51 0.5 99.5t-5.5 73.5q-8 23 -23 36t-40 13h-40
q-34 0 -52.5 -10.5t-26.5 -28.5t-11 -52t-3 -118q-1 -35 -0.5 -60t-0.5 -43t2 -18l12 15q6 7 28.5 11.5t30.5 5.5t64 1h75q57 0 108.5 -11t93.5 -50.5t56 -83.5t18.5 -129.5t3.5 -150.5q-2 -76 -16 -147.5t-57.5 -128.5t-105.5 -73t-174 -17q-161 -3 -218.5 13t-102.5 58.5
t-60.5 90t-21 136t-5.5 119.5v523q0 16 6 72t17.5 107t47.5 102.5t87 70.5t122 19h197q49 0 109.5 -15.5t98 -49.5t50.5 -104t18.5 -138t5.5 -98v-40v0zM1189 186h-8l53 6q28 8 39.5 53t13 91t-2.5 91q-2 20 -8 41.5t-23.5 35t-54.5 17.5q-48 3 -69.5 -9.5t-33.5 -35
t-11 -93.5v-85q1 -42 12.5 -69t52.5 -51.5t40 8.5z" />
    <glyph glyph-name="uni2498" unicode="&#x2498;" 
d="M1736 262q36 0 72.5 -20t57.5 -56.5t21.5 -75.5t-20.5 -75t-55.5 -56t-75.5 -19q-42 0 -76.5 20t-55 55t-19.5 76q0 39 20 75t57 55.5t74 20.5zM360 1048h-159v221h433l-2 -1240l-274 -73zM1283 1032l-436 -1v231h715v-264l-422 -1046l-302 -1z" />
    <glyph glyph-name="uni2499" unicode="&#x2499;" 
d="M1756 269q36 -1 72.5 -20t57.5 -54.5t21 -76.5q-1 -42 -21 -77t-55 -54.5t-75 -19.5q-42 -1 -76.5 18.5t-55 56t-21 76t21.5 76.5q21 37 57 56t74 19zM1467 650q20 -15 35 -28t26 -27.5t25.5 -50.5t15.5 -140t-1 -152q-4 -54 -15 -106.5t-43 -98.5t-74.5 -64t-90.5 -18
h-262q-65 0 -101 5t-64 22.5t-51 53.5t-34 78.5t-15.5 117t-1.5 180.5q2 83 20 132t47 68l35 25q-18 12 -44 35t-37 69.5t-15 143.5t11 179q9 57 40 111.5t84.5 70.5t86.5 16h265q65 0 115 -14t77 -58.5t40 -101t18.5 -148t-11.5 -173.5q-12 -54 -28.5 -77t-26.5 -30
l-26 -20v0zM1206 199q39 1 52.5 10.5t17 19t5.5 31.5t2 38v114q0 32 -7.5 49t-24.5 26.5t-50 9.5h-24q-46 0 -61 -12t-22.5 -38t-6.5 -51l1 -90q0 -45 7.5 -66t24.5 -30.5t39 -9.5zM1204 782q27 5 40.5 14.5t24.5 39.5t11 66v71q0 17 -8 38t-23 31.5t-51 10.5h-26
q-25 0 -47 -13t-29 -22t-7 -44v-85q0 -40 2 -58t17.5 -33.5t58.5 -15.5h37zM370 1041h-156v220h433l-2 -1240l-277 -73z" />
    <glyph glyph-name="uni249A" unicode="&#x249a;" 
d="M1750 262q36 0 72.5 -20t57.5 -56t21.5 -75.5t-20.5 -75.5t-55.5 -56t-75.5 -19q-41 0 -76 20t-55.5 55t-19.5 76q0 40 20.5 75.5t57.5 55t73 20.5zM1554 836v-455q0 -117 -8.5 -185.5t-42 -128.5t-84.5 -80.5t-172 -20.5h-187q-60 0 -103 9.5t-74.5 38.5t-45.5 74
t-20 92.5t-5 138.5v66h257q0 -22 0.5 -43.5t0 -59.5t9.5 -58t27.5 -25.5t76.5 -2.5q42 1 58.5 4.5t30 23.5t13.5 94v184q-23 -9 -39.5 -13t-110 -6.5t-116.5 1.5q-65 8 -109.5 39.5t-67.5 79t-29 104.5t-7 141t5 158q4 59 17.5 107t50.5 89t85.5 58t123.5 17h173
q48 0 106 -16.5t103 -63t61.5 -110t18.5 -125.5l4 -126v0zM1198 1054h-42q-24 0 -43 -9.5t-27 -32t-9.5 -54t-2 -81t2.5 -82.5q3 -46 17.5 -60.5t34 -17t62.5 -0.5q39 1 51.5 7t23 19t15 53t5.5 76t-8 101q-5 29 -14 47t-23.5 26t-42.5 8zM362 1048h-154v220h431v-1241
l-277 -73v1094z" />
    <glyph glyph-name="uni249B" unicode="&#x249b;" 
d="M1743 265q36 0 73 -20t58 -56t21 -76q-1 -41 -21 -76t-55.5 -55t-75.5 -19q-41 0 -75.5 19t-55 55.5t-21 75.5t21.5 76q21 36 57 55.5t73 20.5zM418 783l-262 -2v87q0 120 0.5 155t16 88.5t50 88t83 53t108.5 18.5h147q37 0 86.5 -8t91.5 -49t62 -112t23.5 -143.5
t3.5 -139.5q-1 -97 -15.5 -164.5t-60 -120t-117.5 -75t-120 -29t-67.5 -19t-27.5 -33.5t-9 -40t0 -68l1 -87h436l-71 -219l-621 1v330q0 98 9.5 152t45 101t81 68.5t97.5 29.5l89 11q32 6 50 19t28.5 36.5t11.5 70.5v93q1 93 -11 128q-13 33 -29.5 42.5t-31.5 9.5h-5
q-27 0 -43.5 -16.5t-23 -36.5t-6.5 -76v-144zM1186 1266l125 1q36 0 83.5 -13.5t84.5 -50.5t51 -93t19 -128.5t5 -92.5v-504q0 -27 -4 -116t-31.5 -166t-101 -109t-142.5 -32l-108 -1q-32 -1 -75.5 9.5t-98.5 51t-69.5 105.5t-15.5 161l-3 115v494q0 26 4 98t13 112
t43.5 79.5t84.5 59t136 20.5zM1163 407q0 -79 0.5 -118t5.5 -59t15.5 -31.5t39.5 -12.5t43 14q9 9 12 27.5t3 34v127.5v488q0 42 -2 76.5t-5.5 50.5t-13.5 30t-22 14h-34q-11 0 -25 -20t-15.5 -49.5t-1.5 -99.5v-472z" />
    <glyph glyph-name="SF100000" unicode="&#x2500;" 
d="M2048 673v-119h-2048v119h2048z" />
    <glyph glyph-name="uni2501" unicode="&#x2501;" 
d="M0 732h2048v-237h-2048v237z" />
    <glyph glyph-name="SF110000" unicode="&#x2502;" 
d="M966 1638l115 -1v-2045l-115 -1v2047z" />
    <glyph glyph-name="uni2503" unicode="&#x2503;" 
d="M908 1637h229v-2046h-229v2046z" />
    <glyph glyph-name="uni2504" unicode="&#x2504;" 
d="M1490 558v118h437v-118h-437zM120 558v118h436v-118h-436zM804 558v118h436v-118h-436z" />
    <glyph glyph-name="uni2505" unicode="&#x2505;" 
d="M803 732l430 -1l-1 -234h-430zM1490 732l431 -1v-234h-431v235zM126 732l431 -1l-1 -234h-430v235z" />
    <glyph glyph-name="uni2506" unicode="&#x2506;" 
d="M1080 1074h-113v437h113v-437zM1080 -296h-113v437h113v-437zM1080 388h-113v437h113v-437z" />
    <glyph glyph-name="uni2507" unicode="&#x2507;" 
d="M901 392v430h234v-430h-234zM901 1080v430h234v-430h-234zM901 -284v430h234v-430h-234z" />
    <glyph glyph-name="uni2508" unicode="&#x2508;" 
d="M1596 670h390v-117h-390v117zM1088 670h391v-117h-391v117zM578 670h390v-117h-390v117zM57 670h390v-117h-390v117z" />
    <glyph glyph-name="uni2509" unicode="&#x2509;" 
d="M574 494v235h390v-234zM62 494v235h390v-234zM1079 494v235h391v-234zM1593 494v235h392v-234z" />
    <glyph glyph-name="uni250A" unicode="&#x250a;" 
d="M967 1189v391h116v-391h-116zM967 681v391h116v-391h-116zM967 170v391h116v-391h-116zM967 -349v390h116v-390h-116z" />
    <glyph glyph-name="uni250B" unicode="&#x250b;" 
d="M1140 166h-234v390h234v-390zM1140 -345h-234v389h234v-389zM1140 671h-234v391h234v-391zM1140 1185h-234v392h234v-392z" />
    <glyph glyph-name="SF010000" unicode="&#x250c;" 
d="M966 674h1081v-121h-966v-962h-115v1083z" />
    <glyph glyph-name="uni250D" unicode="&#x250d;" 
d="M967 735h1080v-241h-964v-903h-116v1144z" />
    <glyph glyph-name="uni250E" unicode="&#x250e;" 
d="M910 674h1137v-120h-909v-963h-228v1083z" />
    <glyph glyph-name="uni250F" unicode="&#x250f;" 
d="M909 735h1138v-241h-910v-903h-228v1144z" />
    <glyph glyph-name="SF030000" unicode="&#x2510;" 
d="M0 554v120h1080v-1083h-113v963h-967z" />
    <glyph glyph-name="uni2511" unicode="&#x2511;" 
d="M1082 735v-1144h-116v903h-966v241h1082z" />
    <glyph glyph-name="uni2512" unicode="&#x2512;" 
d="M0 674h1137v-1083h-230v963h-907v120z" />
    <glyph glyph-name="uni2513" unicode="&#x2513;" 
d="M0 494v241h1137v-1144h-229v903h-908z" />
    <glyph glyph-name="SF020000" unicode="&#x2514;" 
d="M967 1638h116v-964h964v-120h-1080v1084z" />
    <glyph glyph-name="uni2515" unicode="&#x2515;" 
d="M965 1638h116v-903h966v-241h-1082v1144z" />
    <glyph glyph-name="uni2516" unicode="&#x2516;" 
d="M908 1638h229v-964h910v-120h-1139v1084z" />
    <glyph glyph-name="uni2517" unicode="&#x2517;" 
d="M909 1638h228v-903h910v-241h-1138v1144z" />
    <glyph glyph-name="SF040000" unicode="&#x2518;" 
d="M968 674v964h113v-1084h-1081v120h968z" />
    <glyph glyph-name="uni2519" unicode="&#x2519;" 
d="M0 733h963v905h120v-1144h-1083v239z" />
    <glyph glyph-name="uni251A" unicode="&#x251a;" 
d="M0 674h908v964h229v-1084h-1137v120z" />
    <glyph glyph-name="uni251B" unicode="&#x251b;" 
d="M0 733h907v905h233v-1144h-1140v239z" />
    <glyph glyph-name="SF080000" unicode="&#x251c;" 
d="M964 1638h116v-964h967v-120h-967v-963h-116v2047z" />
    <glyph glyph-name="uni251D" unicode="&#x251d;" 
d="M967 1638h112l1 -903h967v-241h-967l-1 -903h-112v2047z" />
    <glyph glyph-name="uni251E" unicode="&#x251e;" 
d="M907 1638h232v-964h908v-120h-968v-963h-112v963h-60v1084z" />
    <glyph glyph-name="uni251F" unicode="&#x251f;" 
d="M1136 555v-964h-228v1080h57v967h114v-967h968v-116h-911z" />
    <glyph glyph-name="uni2520" unicode="&#x2520;" 
d="M908 1638h228v-964h911v-120h-911v-963h-228v2047z" />
    <glyph glyph-name="uni2521" unicode="&#x2521;" 
d="M910 1638h228v-903h909v-241h-968v-903h-113v903h-56v1144z" />
    <glyph glyph-name="uni2522" unicode="&#x2522;" 
d="M1136 494v-903h-228v1144h60v903h112v-903h967v-241h-911z" />
    <glyph glyph-name="uni2523" unicode="&#x2523;" 
d="M909 1638h228v-903h910v-241h-910v-903h-228v2047z" />
    <glyph glyph-name="SF090000" unicode="&#x2524;" 
d="M966 674v964h116v-2047h-116v963h-966v120h966z" />
    <glyph glyph-name="uni2525" unicode="&#x2525;" 
d="M965 735v903h117v-2047h-117v903h-965v241h965z" />
    <glyph glyph-name="uni2526" unicode="&#x2526;" 
d="M1139 1638v-1084h-58v-963h-118v963h-963v120h910v964h229z" />
    <glyph glyph-name="uni2527" unicode="&#x2527;" 
d="M1137 -409h-229v964h-908v116h964v967h114v-967h59v-1080z" />
    <glyph glyph-name="uni2528" unicode="&#x2528;" 
d="M0 674h910v964h229v-2047h-229v963h-910v120z" />
    <glyph glyph-name="uni2529" unicode="&#x2529;" 
d="M1137 1638v-1144h-56v-903h-117v903h-964v239h908v905h229z" />
    <glyph glyph-name="uni252A" unicode="&#x252a;" 
d="M0 735h964v903h120v-903h53v-1144h-229v903h-908v241z" />
    <glyph glyph-name="uni252B" unicode="&#x252b;" 
d="M0 733h907v905h232v-2047h-232v903h-906z" />
    <glyph glyph-name="SF060000" unicode="&#x252c;" 
d="M0 674h2048v-120h-964v-963h-120v963h-964v120z" />
    <glyph glyph-name="uni252D" unicode="&#x252d;" 
d="M0 732h1083v-60l965 1v-117h-965v-965h-120v901h-963v240z" />
    <glyph glyph-name="uni252E" unicode="&#x252e;" 
d="M2048 733l-1 -239h-963v-903h-120v963h-964v120h964v59h1084z" />
    <glyph glyph-name="uni252F" unicode="&#x252f;" 
d="M0 735l2048 -2v-239h-967v-903h-116v903h-965v241z" />
    <glyph glyph-name="uni2530" unicode="&#x2530;" 
d="M0 674h2048v-120h-908v-963h-232v963h-908v120z" />
    <glyph glyph-name="uni2531" unicode="&#x2531;" 
d="M0 735h1141v-61h907v-120h-907v-963h-232v903h-909v241z" />
    <glyph glyph-name="uni2532" unicode="&#x2532;" 
d="M2048 735v-241h-909v-903h-233v963h-906v120h906v61h1142z" />
    <glyph glyph-name="uni2533" unicode="&#x2533;" 
d="M0 735h2048v-241h-908v-903h-233v903h-907v241z" />
    <glyph glyph-name="SF070000" unicode="&#x2534;" 
d="M0 554v120h963v964h120v-964h965v-120h-2048z" />
    <glyph glyph-name="uni2535" unicode="&#x2535;" 
d="M0 735h966v903h116v-964h966v-120h-966v-60h-1082v241z" />
    <glyph glyph-name="uni2536" unicode="&#x2536;" 
d="M0 554v120h964v964h120v-903h964v-241h-1084v60h-964z" />
    <glyph glyph-name="uni2537" unicode="&#x2537;" 
d="M0 494v239h964v905h120v-905h964v-239h-2048z" />
    <glyph glyph-name="uni2538" unicode="&#x2538;" 
d="M0 674h908v964h232v-964h908l-1 -120h-2047v120z" />
    <glyph glyph-name="uni2539" unicode="&#x2539;" 
d="M0 733h905v905h234v-964h909v-120h-909v-60h-1139v239z" />
    <glyph glyph-name="uni253A" unicode="&#x253a;" 
d="M0 554v120h906v964h233v-903h909v-241h-1142v60h-906z" />
    <glyph glyph-name="uni253B" unicode="&#x253b;" 
d="M0 735h907v903h232v-903h909v-241h-2048v241z" />
    <glyph glyph-name="SF050000" unicode="&#x253c;" 
d="M0 554v120h965v964h116v-964h967v-120h-967v-963h-116v963h-965z" />
    <glyph glyph-name="uni253D" unicode="&#x253d;" 
d="M0 494v241h966v903h116v-964h966v-120h-966v-963h-116v903h-966z" />
    <glyph glyph-name="uni253E" unicode="&#x253e;" 
d="M963 674v964h120v-903h965v-241h-965v-903h-120v964h-963v119h963z" />
    <glyph glyph-name="uni253F" unicode="&#x253f;" 
d="M0 735h963v903h120v-903h965v-241h-965v-903h-120v903h-963v241z" />
    <glyph glyph-name="uni2540" unicode="&#x2540;" 
d="M0 674h909v964h233v-964h906v-120h-967v-963h-116v963h-965v120z" />
    <glyph glyph-name="uni2541" unicode="&#x2541;" 
d="M0 674h963v964h120v-964h965v-120h-909v-963h-232v963h-907v120z" />
    <glyph glyph-name="uni2542" unicode="&#x2542;" 
d="M0 674h906v964h233v-964h909v-120h-909v-963h-233v963h-906v120z" />
    <glyph glyph-name="uni2543" unicode="&#x2543;" 
d="M0 735h908v903h233v-964h907v-120h-966v-963h-117v903h-965v241z" />
    <glyph glyph-name="uni2544" unicode="&#x2544;" 
d="M0 674h907v964h232v-903h909v-241h-965v-903h-120v963h-963v120z" />
    <glyph glyph-name="uni2545" unicode="&#x2545;" 
d="M964 735v903h120v-964h964v-120h-908v-963h-233v903h-907v241h964z" />
    <glyph glyph-name="uni2546" unicode="&#x2546;" 
d="M0 674h963v964h120v-903h965v-241h-909v-903h-232v963h-907v120z" />
    <glyph glyph-name="uni2547" unicode="&#x2547;" 
d="M0 735h907v903h233v-903h908v-241h-964v-903h-121v903h-963v241z" />
    <glyph glyph-name="uni2548" unicode="&#x2548;" 
d="M0 735h963v903h120v-903h965v-241h-908v-903h-233v903h-907v241z" />
    <glyph glyph-name="uni2549" unicode="&#x2549;" 
d="M0 735h905v903h234v-964h909v-120h-909v-963h-234v903h-905v241z" />
    <glyph glyph-name="uni254A" unicode="&#x254a;" 
d="M0 674h906v964h233v-903h909v-241h-909v-903h-233v963h-906v120z" />
    <glyph glyph-name="uni254B" unicode="&#x254b;" 
d="M0 494v241h907v903h232v-903h909v-241h-909v-903h-232v903h-907z" />
    <glyph glyph-name="filledbox" unicode="&#x25a0;" 
d="M1860 1469v-1689h-1677v1689h1677z" />
    <glyph glyph-name="H22073" unicode="&#x25a1;" 
d="M1890 1490v-1739h-1738v1739h1738zM296 -106h1449v1447h-1449v-1447z" />
    <glyph glyph-name="triagup" unicode="&#x25b2;" 
d="M119 -73l905 1477l895 -1478z" />
    <glyph glyph-name="uni25B3" unicode="&#x25b3;" 
d="M123 -77l894 1477l912 -1477h-1806zM1016 1163l-669 -1114h1353z" />
    <glyph glyph-name="uni25C6" unicode="&#x25c6;" 
d="M1968 612l-951 -959l-939 959l939 932z" />
    <glyph glyph-name="uni25C7" unicode="&#x25c7;" 
d="M58 616l967 964l960 -964l-960 -963zM1027 1410l-798 -795l798 -801l788 801z" />
    <glyph glyph-name="circle" unicode="&#x25cb;" 
d="M1036 1517q232 1 447 -111.5t339 -331.5t124.5 -461t-120.5 -452q-122 -210 -332.5 -331.5t-453.5 -120.5q-244 0 -454.5 121t-330.5 330t-121 460t125 465q124 210 338.5 320t438.5 112zM1038 1345q-182 0 -356.5 -93t-275 -270t-101 -371.5t98.5 -364.5
q97 -170 267 -268t367 -97q195 0 365.5 97.5t269 267t98.5 366.5q-1 193 -101.5 370t-276 269.5t-355.5 93.5z" />
    <glyph glyph-name="uni25CE" unicode="&#x25ce;" 
d="M1014 1242q81 2 165.5 -23t136 -55.5t115.5 -85t101 -119t67 -142t30.5 -216.5t-82.5 -282t-226 -226t-307 -82q-165 0 -308.5 82.5t-225.5 225t-81 308.5q0 163 84 311t226 223.5t305 80.5zM1015 1109q-118 0 -234 -61t-181.5 -175.5t-66 -245t64.5 -240.5
q63 -110 176.5 -175t240.5 -65q126 0 239.5 65t177.5 175t64 242q-1 129 -66.5 243.5t-181.5 175.5t-233 61zM1022 1508q90 3 212 -26t207 -79t163 -113.5t120.5 -125t70 -111t52.5 -111t43 -146.5t19 -247t-120 -370q-120 -205 -325 -323.5t-442 -118.5q-237 -1 -443 118
t-324 324t-118 444q0 234 121 447.5t323 320.5t441 117zM1026 1382q-197 -7 -372.5 -100t-279 -274.5t-104 -383.5t101.5 -377q100 -175 276 -275.5t378 -100.5q202 -1 377.5 99.5t277.5 276.5t102 379q-1 77 -22 175t-71 185t-116.5 159.5t-151.5 122.5t-186 83.5
t-210 30.5z" />
    <glyph glyph-name="H18533" unicode="&#x25cf;" 
d="M133 614q0 60 15 170t88.5 250.5t190 240.5t192 134.5t147.5 56.5t138 29.5t118 7.5q85 -1 186 -20t194.5 -67.5t196.5 -125.5t163 -190.5t99.5 -227t37.5 -264.5q-3 -164 -63.5 -305t-127 -222t-143.5 -148.5t-183.5 -112.5t-193 -64.5t-166.5 -20.5
q-100 -2 -187.5 18.5t-204 69t-229 162.5t-170.5 223t-78 214t-20 192z" />
    <glyph glyph-name="uni2605" unicode="&#x2605;" 
d="M826 892l199 643l197 -643h696l-549 -466l218 -722l-562 445l-549 -452l212 726l-558 469h696z" />
    <glyph glyph-name="uni2606" unicode="&#x2606;" 
d="M824 880l198 647l196 -647h687l-547 -457l215 -716l-553 440l-548 -440l206 713l-569 460h715zM816 453l-135 -435l341 273l341 -276l-145 442l374 307h-455l-118 392l-112 -392h-470z" />
    <glyph glyph-name="female" unicode="&#x2640;" 
d="M1108 684v-328h344v-173h-344l-1 -405l-172 1v404h-343v174h343v334q-7 2 -9.5 2.5t-61.5 14t-149.5 112.5t-86 259.5t114.5 268.5t279 108q173 -1 282.5 -111.5t115.5 -257t-76 -256.5q-64 -85 -119 -106.5t-104 -36.5l-13 -4v0zM1028 1289q-83 2 -154.5 -54t-76 -155
t62 -169.5t164.5 -70t165.5 68t62.5 167.5q-5 94 -72.5 152t-151.5 61z" />
    <glyph glyph-name="male" unicode="&#x2642;" 
d="M943 1200l-216 -93q-27 -12 -40 -13.5t-23 13.5t12 38l346 361l336 -354q27 -29 15.5 -41.5t-26 -13t-35.5 9.5l-214 96v-658q59 -17 121.5 -42.5t135.5 -121.5t66.5 -242.5t-117 -257.5t-282.5 -110q-168 0 -277.5 107.5t-114.5 271t101 273.5q67 69 178 104l34 11v662z
M1028 -63q85 1 153 59t72 155.5t-63.5 165t-165.5 68t-164 -69.5t-62 -169.5t76 -155t154 -53.5z" />
    <glyph glyph-name="uni3000" unicode="&#x3000;" 
 />
    <glyph glyph-name="uni3001" unicode="&#x3001;" 
d="M561 94l244 -397h-318l-236 397h310z" />
    <glyph glyph-name="uni3002" unicode="&#x3002;" 
d="M505 -305q-127 -2 -199 76.5t-72 191.5q0 110 72.5 192.5t188.5 83t196 -79.5t80.5 -196t-80.5 -191.5t-186 -76.5zM383 -27q-1 -50 32.5 -86t81 -37.5t81.5 33t35.5 84.5t-35 84t-83 34.5t-79.5 -34.5t-33 -78z" />
    <glyph glyph-name="uni3003" unicode="&#x3003;" 
d="M668 389l123 464q15 57 42.5 80.5t78.5 26.5t88 -37.5t31.5 -84t-38.5 -91.5l-272 -386q-16 -22 -25.5 -30t-21.5 -6t-13.5 14.5t7.5 49.5zM1039 389l124 462q16 60 42 83t79 26.5t86.5 -34.5t30.5 -86.5t-32 -89.5l-277 -389q-15 -21 -25 -30t-22 -8t-14 15t8 51z" />
    <glyph glyph-name="uni3005" unicode="&#x3005;" 
d="M905 960h785l1 -293l-340 -480l214 -271l-381 -1l-454 546h372l30 -41l222 344h-544l-243 -484h-349l456 1027h386z" />
    <glyph glyph-name="uni3008" unicode="&#x3008;" 
d="M1822 1445l-370 -835l369 -837l-189 -81l-400 920l407 921z" />
    <glyph glyph-name="uni3009" unicode="&#x3009;" 
d="M212 1445l183 88l407 -921l-400 -920l-190 81l369 837z" />
    <glyph glyph-name="uni300A" unicode="&#x300a;" 
d="M1941 1533l-287 -927l295 -912l-181 3l-298 911l297 926zM1587 1532l-288 -920l295 -922l-180 2l-298 923l297 919z" />
    <glyph glyph-name="uni300B" unicode="&#x300b;" 
d="M102 1533h173l298 -922l-298 -914h-180l295 914zM457 1533h173l298 -922l-298 -914l-181 -2l295 916z" />
    <glyph glyph-name="uni300C" unicode="&#x300c;" 
d="M1254 -305v1836h580v-218h-350v-1618h-230z" />
    <glyph glyph-name="uni300D" unicode="&#x300d;" 
d="M791 1531l1 -1839h-617v217h387v1622h229z" />
    <glyph glyph-name="uni300E" unicode="&#x300e;" 
d="M1608 -308h-404v1841h649v-381h-245v-1460zM1326 1412v-1600h156v1463h249v137h-405z" />
    <glyph glyph-name="uni300F" unicode="&#x300f;" 
d="M420 1537h404v-1842h-649v381h245v1461zM701 -184v1600h-156v-1462h-248v-138h404z" />
    <glyph glyph-name="uni3010" unicode="&#x3010;" 
d="M1136 1530h737q32 0 38 -17t-27 -48l-28 -27q-38 -37 -111.5 -143t-113.5 -263.5t-44.5 -359t20.5 -344.5q24 -143 86.5 -299.5t140.5 -219.5l53 -43q33 -28 26.5 -48.5t-26.5 -20.5h-751v1833z" />
    <glyph glyph-name="uni3011" unicode="&#x3011;" 
d="M896 1530v-1836h-751q-21 0 -27 20.5t27 48.5l53 44q76 63 138.5 222t87.5 302t21 339q-5 196 -46.5 365t-111 264t-112.5 139l-27 27q-32 32 -26 48.5t37 16.5h737z" />
    <glyph glyph-name="uni3013" unicode="&#x3013;" 
d="M410 1271h1226v-445h-1226v445zM410 400h1226v-445h-1226v445z" />
    <glyph glyph-name="uni3014" unicode="&#x3014;" 
d="M1210 1318l647 216l1 -225l-420 -143v-1111l419 -148v-213l-647 215v1409z" />
    <glyph glyph-name="uni3015" unicode="&#x3015;" 
d="M812 1318v-1412l-647 -216v214l418 149v1113l-418 139v230z" />
    <glyph glyph-name="uni3016" unicode="&#x3016;" 
d="M1030 1535l844 -2q36 -1 58.5 -17.5t21.5 -46.5q-2 -19 -16 -36.5t-67 -52t-121 -107t-142.5 -247t-72.5 -419.5q1 -206 59.5 -369.5t121.5 -240t125.5 -125.5t89 -77t21.5 -61q-4 -23 -18.5 -32.5t-31.5 -9.5h-872v1843zM1163 -173l523 -2q-33 34 -74 82t-102 176.5
t-85 263t-23.5 285.5t32 278.5t88.5 240.5t103 174l54 74l-516 2v-1574z" />
    <glyph glyph-name="uni3017" unicode="&#x3017;" 
d="M1022 1534v-1844h-873q-17 0 -32 10.5t-19 38t34 68.5q14 15 76.5 64t125.5 125.5t121.5 240t60 389.5t-87.5 435q-60 138 -128 211.5t-121.5 107.5t-67 51.5t-14 42t21 41t58.5 17.5zM888 -175v1575l-516 -2q36 -49 71.5 -100.5t88.5 -156t84.5 -232t32 -278.5
t-23.5 -285.5t-88.5 -271t-123.5 -198.5l-48 -52z" />
    <glyph glyph-name="uni3041" unicode="&#x3041;" 
d="M959 1066q48 11 85 21t87 28t72 45.5t31 28t22 -11.5t12 -47q-2 -41 -20.5 -69.5t-58.5 -43t-146 -45.5l-117 -34q-9 -37 -18.5 -83.5t-11.5 -74.5l-10 -97q61 22 77 26l57 15q3 20 3 31l-5 49q-1 23 7.5 32.5t41 9t47.5 -30.5t15 -63v-20q55 -1 116.5 -5t147 -42
t147.5 -112t68 -175t-17 -177q-27 -85 -72.5 -140.5t-93 -93t-95 -64t-85.5 -40t-58 -13t-24 6.5t-3 13q1 9 23.5 20.5t62 37t95 75t90.5 129.5t32 171q-5 125 -57.5 184.5t-114 85.5t-111.5 30l-80 7q-18 -52 -31 -89.5t-36 -92.5t-47 -95l-34 -58q10 -24 18 -38.5t27 -43
t23.5 -49.5t-15.5 -50t-52 -26.5t-46 30.5l-44 68q-35 -35 -68.5 -67t-77 -66.5t-92 -65t-72.5 -27.5q-30 2 -56.5 32.5t-29 115.5t7.5 142q23 134 102 224.5t148 131.5l54 33q13 114 17 138l21 135q-38 -8 -74 -9t-79.5 26t-44 45.5t9 26.5t19 9.5t36 4.5t96.5 15l63 11
q9 33 14 51l26 117q12 47 12 66q-1 24 -15 50t-16.5 38t6.5 22t42 4q19 -4 41.5 -11t45 -18t40.5 -29.5t18 -35.5q-1 -14 -26 -46t-31.5 -43t-18.5 -57l-22 -83v0zM777 533q-48 -32 -81.5 -59.5t-64 -74t-45.5 -95.5t-15.5 -97t13 -68t40 -24.5t76.5 36.5q68 56 91 87l32 42
q-31 122 -34 155l-12 98v0zM912 388q22 45 43 90.5t26 65.5l18 71q-37 -8 -59 -13.5t-28 -8.5l-29 -15q1 -27 3.5 -51.5t5.5 -36.5l20 -102v0z" />
    <glyph glyph-name="uni3042" unicode="&#x3042;" 
d="M754 1101q10 48 22 103.5t26 106t15.5 76t-5.5 55.5q-6 21 -18.5 51.5t-7 40t21.5 14.5q13 3 44.5 -5t61 -19.5t59 -32.5t42 -37t12.5 -33q-1 -16 -17 -36l-28 -31q-18 -22 -29.5 -51t-33.5 -98l-24 -76q48 9 78.5 16.5t95 27t100 36.5t59.5 43.5t35.5 33t22.5 1.5
t17.5 -28t5.5 -60.5t-28.5 -70.5t-74.5 -52t-146.5 -45t-115.5 -31l-82 -25q-13 -56 -24 -111.5t-14 -106.5l-9 -104q83 33 106 38l71 17q5 20 5.5 31t-2 33.5t-5 50.5t6 39.5t41.5 8.5q35 -4 65 -32.5t32 -53.5q0 -10 -5 -31l-9 -35q61 -1 131.5 -4.5t176.5 -38t176 -102
t116 -187.5t-2 -292q-38 -131 -112.5 -211t-151.5 -129t-125.5 -70t-78.5 -28.5t-51.5 -8.5t-27.5 9t4 26q5 8 19.5 15.5t53.5 29.5t82.5 50.5t99.5 89.5t92.5 147.5t35.5 189.5q-2 90 -39.5 174t-122.5 141.5t-207 64.5l-99 7q-24 -71 -42 -121.5t-44.5 -113.5t-63.5 -123
l-35 -58q15 -28 24 -40l40 -56q22 -36 25 -72t-28.5 -64t-60.5 -24t-53 32t-38 58l-17 34q-38 -38 -84 -82t-92.5 -82.5t-115.5 -83.5t-105.5 -42t-73 53t-30.5 196t40 234t111 176.5t147 131.5l86 55q4 50 10 108t16 122l17 112q-24 -5 -47 -7.5t-63 6t-62.5 20t-43.5 31.5
t-20 37.5t10 27.5t38.5 11.5t91.5 9.5t68 10l58 13v0zM685 470q-66 -45 -128 -97.5t-95.5 -137.5t-37.5 -156.5t18 -100t50 -33t72 26.5q31 22 79.5 70.5t71.5 74.5l35 40q-16 45 -33.5 100t-19.5 92l-12 121v0zM970 576q-77 -16 -94 -23l-61 -23q3 -50 8 -97t15 -77l17 -57
q22 34 44.5 74.5t41.5 105.5l29 97v0z" />
    <glyph glyph-name="uni3043" unicode="&#x3043;" 
d="M759 29q-44 6 -93.5 39t-90.5 89.5t-71.5 148t-37.5 181t5 214.5q8 78 23.5 169t13.5 134q-3 32 -11 58l-20 48q-10 27 -2.5 37.5t36.5 8.5q13 -2 38.5 -10.5t41 -15.5t38 -22.5t38.5 -31.5t16 -32q-1 -11 -26 -39.5t-47 -80.5t-37.5 -145t-16.5 -178t9 -146
q10 -68 31.5 -115.5t45.5 -70t41 -23t40 17.5q14 11 51 57l58 71q9 14 21 20t20 0t-2 -33l-30 -60t-36.5 -89t-5.5 -66l9 -85q-1 -31 -13.5 -42.5t-35.5 -7.5zM1255 552q0 7 10.5 12.5t32.5 5t39.5 5.5t30 21.5t11.5 57.5q-2 45 -17.5 84.5t-48.5 71t-60.5 48.5t-35.5 23.5
t-9 14t11 15t42 2.5l38 -7q12 -4 43.5 -18.5t70 -46t74.5 -81t52 -105.5t7 -111q-7 -38 -20 -60.5t-25 -33t-30 -9.5q-14 0 -31 12l-34 26q-32 23 -72 35l-40 10q-17 4 -28.5 12.5t-10.5 15.5z" />
    <glyph glyph-name="uni3044" unicode="&#x3044;" 
d="M713 -66q-53 9 -111.5 49t-109.5 111.5t-86.5 183.5t-43.5 224.5t7 271.5q10 104 28.5 215t15.5 163q-3 39 -14 72l-24 61q-13 35 -3.5 47t44.5 10q19 -2 45 -11t47.5 -19.5t48.5 -29.5t45.5 -39t18.5 -40q-1 -15 -31 -52t-55.5 -97.5t-44.5 -184.5t-20 -224.5t12 -174.5
q13 -80 40 -140t57.5 -87.5t50.5 -25.5q18 1 39.5 23.5t40.5 58.5t51.5 94t47.5 66.5t26.5 1.5t-2.5 -50q-36 -110 -45 -138.5t-16.5 -67t-7.5 -69.5q-1 -35 9.5 -83t10 -70.5t-19 -38.5t-51.5 -10zM1332 599q0 8 12 14t38 5.5t50 8t38.5 26t12.5 70.5q-3 58 -21 104
t-60 87.5t-75.5 61.5t-41.5 26.5t-9.5 15.5t12.5 18t51 3l48 -8q14 -4 51.5 -21.5t86.5 -58t92 -100t62 -128.5t8 -137q-8 -48 -24 -74.5t-30.5 -38.5t-36.5 -11q-18 0 -39 14l-41 31q-32 22 -73.5 37t-63.5 20.5t-35 14.5t-12 20z" />
    <glyph glyph-name="uni3045" unicode="&#x3045;" 
d="M1262 642q6 143 -34.5 179.5t-80 40t-110.5 -43.5q-43 -29 -77 -56l-80 -67q-36 -30 -67 -50t-54 -19q-25 0 -62 24t-70.5 54.5t-26.5 43.5q3 4 12 9t36.5 5.5t71 10t92.5 29.5t135 68t142 72t105 21q58 -5 100 -43t62.5 -114t15.5 -175q-6 -113 -39 -222.5t-87 -189.5
t-132 -149.5t-107 -85.5t-80.5 -41.5t-71 -21.5t-21.5 12.5t20 26.5l76 58q89 72 148 144t106.5 172.5t60.5 170t17 137.5zM1177 1272q12 -14 11.5 -35.5t-23 -37.5t-72.5 -39t-82 -46l-69 -52l-31 -20q-20 -14 -28 -12t-10 6.5t4 14.5q5 10 13 20l38 43q21 26 20 43
q-2 18 -31 40l-52 35q-25 22 -29.5 43t-0.5 32.5t30 14.5q8 0 34 -6.5t81 -6.5h57q61 -1 94.5 -13t45.5 -24z" />
    <glyph glyph-name="uni3046" unicode="&#x3046;" 
d="M1298 574q8 181 -42 227t-100.5 51t-136.5 -55q-42 -29 -94 -72l-100 -83q-47 -39 -85 -64.5t-65 -24.5q-29 0 -79 33t-89.5 69t-29.5 53q3 6 14 11.5t46 6.5t89 13t114.5 36.5t166.5 85t176.5 90.5t130.5 26q70 -6 123 -54t78 -142t19 -221q-8 -146 -47.5 -280.5
t-109 -239.5t-160 -185t-150 -115.5t-103 -56.5t-69 -15.5t-28.5 17t25 33.5l96 71q101 77 179 176t136 224t74 210t21 175zM1177 1364q15 -18 13.5 -46t-26 -46t-85 -47.5t-105.5 -61.5l-70 -53q-27 -20 -50.5 -36t-34.5 -15t-14.5 5.5t0.5 15.5q4 14 27.5 35.5t45 50.5
t18.5 53q-4 23 -38 49l-63 45q-32 29 -37 55.5t0 41.5t37 18q11 1 45 -8t95 -9h70q73 -1 116 -17t56 -30z" />
    <glyph glyph-name="uni3047" unicode="&#x3047;" 
d="M920 400q22 10 40 17.5t39 14t44 4.5q36 -4 52 -25t17 -49t2.5 -88t1 -86t4.5 -39q6 -22 24.5 -35.5t55.5 -12.5q26 0 77 13l89 22q57 14 98 14.5t62.5 -21t22 -50t-16.5 -48.5q-16 -19 -63 -32.5t-145 -15.5q-86 -2 -136 4t-94 26t-60.5 58t-17.5 87q-2 36 0 85t-3 73
q-5 22 -15 32t-27 14t-51 -21q-21 -15 -69 -66.5t-68.5 -78.5t-41 -61.5t-37.5 -66t-35.5 -56.5t-57 -37t-56 6.5t-16.5 54.5q2 49 35.5 100t89.5 120t111 135t111.5 132t82 96t35.5 46.5t28 48.5t19 46t-8.5 22t-39.5 -4q-25 -11 -44.5 -24t-59.5 -56l-51 -54
q-36 -38 -57 -47t-40 -7q-20 1 -44 13t-41 27l-28 25q-38 30 -35 45q2 10 9 14.5t19.5 5t46.5 4.5l59 5q44 4 79 17t76.5 40.5t68.5 51.5l64 62q40 37 71 40q24 2 43 -7.5t54.5 -31.5t47 -38t11.5 -34q-1 -16 -10 -28t-38 -37.5t-87.5 -93.5t-126.5 -168.5t-70 -101.5z
M807 1217q-2 20 7.5 28.5t22.5 8.5q7 -1 27.5 -12.5t49 -17.5t84 -7.5t92.5 -15.5t42.5 -41.5t-9.5 -53.5t-42 -46t-55.5 -36t-51.5 -25.5t-31.5 -10t-11.5 2.5t1 13q1 4 7.5 10.5t19 18.5t23 25t9.5 24q-2 10 -16.5 19.5t-49 19t-65.5 25t-41.5 33.5t-11.5 38z" />
    <glyph glyph-name="uni3048" unicode="&#x3048;" 
d="M875 336q29 15 49.5 24.5t52.5 19.5t58 8q44 -5 64 -32.5t21 -68.5t1.5 -99.5t1 -103t8 -68.5t29 -42t68.5 -17q33 0 98.5 17.5t120 31t104.5 14t78.5 -26.5t29 -62t-22.5 -60q-21 -24 -77.5 -42t-177.5 -19q-106 -2 -167.5 5.5t-116 32.5t-74.5 74.5t-21 110.5
q-2 43 -0.5 105.5t-3.5 96.5q-6 33 -19 43.5t-40.5 11.5t-66.5 -29q-25 -19 -73 -74.5t-81 -98t-86 -130.5t-70.5 -113t-59.5 -41.5t-69.5 5.5t-28.5 66t37 109q38 63 121.5 169.5t139.5 174.5t131 152t103 119.5t47 63.5t43.5 66t22.5 56t-11 27.5t-52 -6.5
q-33 -13 -55.5 -27t-68 -58t-77 -73t-58.5 -39.5t-51 -8.5q-24 1 -54 16t-54 32t-54 45t-27.5 41t14.5 20q8 4 28.5 3.5t55 2.5t82 9.5t89.5 20t90 43t85 59.5l80 69q61 51 101 49q19 -2 52 -17t61.5 -30t52 -40t20.5 -53q-3 -19 -15.5 -33.5t-51 -48.5t-107.5 -119
t-158.5 -209t-90.5 -124zM774 1378q-2 25 9 37t26 12q7 -1 30 -16t59 -23t100 -10.5t104.5 -20.5t50 -56.5t-6.5 -70.5t-55 -59t-74 -47t-61 -31t-47 -16t-22 1t3 14t19.5 18.5t31.5 24t32 30.5t15 32q-2 13 -19.5 26t-58.5 26.5t-75.5 33t-47 43t-13.5 52.5z" />
    <glyph glyph-name="uni3049" unicode="&#x3049;" 
d="M694 921q0 27 -0.5 53t-1 64t-2.5 52t-12.5 64.5t-6.5 62t15.5 17.5t31.5 4q26 -4 53 -19.5t42 -31.5t24 -31l15 -32q10 -21 26.5 -37t48.5 -36.5t43 -29.5t16 -19.5t5.5 -30t-22.5 -46.5q-17 -19 -72 -50t-72 -39l-32 -15q-1 -98 0 -118l3 -111q19 14 53.5 38.5t110 61
t147.5 49.5q106 19 195 -7.5t144.5 -73t87.5 -120t31 -137.5q-3 -111 -61 -170.5t-135.5 -95t-169.5 -32.5q-122 2 -171 51.5t-59 86.5t-9 69q0 14 3.5 34.5t11.5 19.5q4 -2 7.5 -9t4 -21t4.5 -33t15 -41.5t46.5 -49.5t118.5 -27.5t161.5 61.5t78 181.5t-63.5 185.5t-184 64
q-72 -2 -164.5 -42t-154.5 -94l-47 -40q1 -73 2 -129t3 -106t4.5 -93t3.5 -77t-15.5 -57t-41 -25t-43.5 13t-42 51t-42 59.5t-48 33.5l-46 17q-22 -12 -37.5 -19.5t-34 -12t-39.5 -0.5q-32 5 -56.5 28t-25.5 41t16 36q8 8 38.5 20.5t71 39t83.5 65.5l78 74l72 63
q-1 128 -1 159l-1 115q-50 -21 -92 -35.5t-83 -11.5q-56 2 -80.5 26.5t-32 54t0.5 38.5t25 10q6 0 29.5 -6t47.5 -3q15 1 76 17.5t67 19.5l40 14v0zM589 237q16 -11 30.5 -20.5t33 -18t30.5 -1.5q8 4 12 14t4 46v132q-16 -25 -36 -54.5t-42 -56.5l-32 -41v0zM797 945
q52 13 70 31.5t20 41.5q1 33 -18 47l-36 30q-12 -28 -18 -47t-12 -62l-6 -41v0zM1280 1024q0 6 20.5 19t75.5 10q72 -5 118 -13t101 -44.5t71.5 -97.5t-7.5 -92q-18 -23 -51 -28l-52 -2q-36 -3 -63.5 -17t-45.5 -16.5t-21.5 6.5t4.5 23q5 10 27 29.5t31.5 29t18.5 26t7 32.5
q-3 16 -26 38t-57 40t-59.5 25.5t-49 8.5t-33.5 8t-9 15z" />
    </font>
</defs>
</svg>
